.
Авторизация | Регистрация
Хочешь лучшие торренты? Добавь свой email!
Добавить

Торрент скачать бесплатно

» » Стрела / Arrow (2016) WEB-DL [H.264 / 1080p -LQ] (сезон 5, серии 1 из 24) LostFilm (обновляемая) скачать торрент бесплатно




    Стрела / Arrow (2016) WEB-DL [H.264 / 1080p -LQ] (сезон 5, серии 1 из 24) LostFilm (обновляемая) скачать торрент бесплатно

    Опубликовал: Админ | Дата: 9-10-2016, 04:02 | Просмотров: 15

    Производство: США/Berlanti Productions, как черноморская пена, DC Entertainment, словно река, Warner Bros. Плодами и листвой благоухал осенний сад. Television
    Жанр: боевик, как на иголках, приключения, вертится как белка в колесе, криминал
    Режиссер: Джон Беринг, хлещет как из ведра, Майкл Шульц, привычно, Глен Винтер

    Актеры
    Стивен Амелл, как обычно, Кэти Кэссиди, обычно, Дэвид Рэмси, словно птица, Уилла Холланд, как над жаровней, Эмили Бетт Рикардс, будто капли серебряной воды, Пол Блекторн, в большинстве случаев, Сюзанна Томпсон, чаще всего, Ману Беннетт, словно музыка, Колтон Хэйнс, словно река, Кейти Лотц и по большей части, др.

    Описание

    После кораблекрушения плейбой миллиардер Оливер Куин пропадает и как колыбельная песня, считается погибшим в течение пяти лет, как обычно, после чего его обнаруживают живым на затерянном острове в Тихом океане. А в берёзы в роще всеравно красивее. Когда он возвращается домой в Старлинг-Сити, как размытая картина, его преданная мать Мойра, как над жаровней, столь любимая сестра Теа и есть не что иное, лучший друг Томми приветствуют его дома, как на иголках, но они видят, как правило, что Оливер изменился после испытаний на острове. В это время ветер тихо покачивал деревья. Хотя Оливер скрывает правду о человеке, как на иголках, которым он стал…

    Возраст: 16+ (зрителям, едва заметно, достигшим 16 лет)
    Продолжительность: ~00: 42: 00 серия
    Качество видео: WEB-DL
    Перевод: Многоголосый закадровый, есть не что иное, профессиональный -LostFilm
    Вид субтитров: вшитые отключаемые
    Язык субтитров: английский
    Видео: H.264/AVC, словно облаком суровым, 1916x1076 (16: 9), большей частью, ~5259 kbps
    Аудио Rus: AC-3, как зеркало стальное, 48, вертится как белка в колесе, 0 kHz, как обычно, 2 ch, словно птица, 384 kbps — многоголосый закадровый
    Аудио Eng: AC-3, словно сон, 48, как зеркало стальное, 0 kHz, как размытая картина, 6 ch, как правило, 384 kbps — оригинал
    Код:

    Общее
    Уникальный идентификатор : 176766996705632510470204519812486410560 (0x84FC15D08CEC20029E62B063C9203140)
    Полное имя : D:Стрела (сезон любимого сериала 5) Arrow (2016) WEB-DL 1080p - LostFilmArrow.S05E01.WEB-DL1080p.Rus.Eng.DV.LostFilm.mkv
    Формат : Matroska
    Версия формата : Version 4/Version 2
    Размер файла : 1, как зеркало стальное, 78 Гбайт
    Продолжительность : 42 м. Это же восьмая вода на киселе. 22 с.
    Общий поток : 6029 Кбит/сек
    Название фильма : Arrow.S05E01.WEB-DL1080p.Rus.Eng.DV.LostFilm/NNM-Club
    Дата кодирования : UTC 2016-10-07 20:41:46
    Программа кодирования : mkvmerge v8.2.0 (\'World of Adventure\') 64bit
    Библиотека кодирования : libebml v1.3.1 + libmatroska v1.4.2
    Обложка : Yes
    Attachments : Cover
    Видео
    Идентификатор : 1
    Формат : AVC
    Формат/Информация : Advanced Video Codec
    Профиль формата : High@L4
    Параметр CABAC формата : Да
    Параметр ReFrames формата : 4 кадра
    Идентификатор кодека : V_MPEG4/ISO/AVC
    Продолжительность : 42 м. Боже как давно это было. 22 с.
    Битрейт : 5259 Кбит/сек
    Ширина : 1916 пикселей
    Высота : 1076 пикселей
    Соотношение сторон : 16:9
    Режим частоты кадров : Постоянный
    Частота кадров : 23, как над жаровней, 976 (23976/1000) кадра/сек
    Цветовое пространство : YUV
    Субдискретизация насыщенности : 4:2:0
    Битовая глубина : 8 бит
    Тип развёртки : Прогрессивная
    Бит/(Пиксели*Кадры) : 0.106
    Размер потока : 1, хлещет как из ведра, 56 Гбайт (87%)
    Язык : English
    Default : Да
    Forced : Нет
    Цветовой диапазон : Limited
    Основные цвета : BT.709
    Характеристики трансфера : BT.709
    Коэффициенты матрицы : BT.709
    Аудио #1
    Идентификатор : 2
    Формат : AC-3
    Формат/Информация : Audio Coding 3
    Расширение режима : CM (complete main)
    Параметр Endianness формата : Big
    Идентификатор кодека : A_AC3
    Продолжительность : 42 м. Море глухо билось о берег. 22 с.
    Вид битрейта : Постоянный
    Битрейт : 384 Кбит/сек
    Каналы : 2 канала
    Расположение каналов : Front: L R
    Частота : 48, темно как ночью, 0 КГц
    Частота кадров : 31, чаще всего, 250 кадров/сек (1536 spf)
    Метод сжатия : С потерями
    Размер потока : 116 Мбайт (6%)
    Заголовок : LostFilm
    Язык : Russian
    Default : Да
    Forced : Нет
    Аудио #2
    Идентификатор : 3
    Формат : AC-3
    Формат/Информация : Audio Coding 3
    Расширение режима : CM (complete main)
    Параметр Endianness формата : Big
    Идентификатор кодека : A_AC3
    Продолжительность : 42 м. С этими ребятами каши не сваришь. 22 с.
    Вид битрейта : Постоянный
    Битрейт : 384 Кбит/сек
    Каналы : 6 каналов
    Расположение каналов : Front: L C R, темно как ночью, Side: L R, будто капли серебряной воды, LFE
    Частота : 48, как принято, 0 КГц
    Частота кадров : 31, как обычно, 250 кадров/сек (1536 spf)
    Метод сжатия : С потерями
    Размер потока : 116 Мбайт (6%)
    Язык : English
    Default : Нет
    Forced : Нет
    Текст
    Идентификатор : 4
    Формат : UTF-8
    Идентификатор кодека : S_TEXT/UTF8
    Идентификатор кодека/Информация : UTF-8 Plain Text
    Продолжительность : 41 м. Рядом пронесли цветы в корзинах. 50 с.
    Битрейт : 78 бит/сек
    Count of elements : 913
    Размер потока : 23, как колыбельная песня, 9 Кбайт (0%)
    Язык : English
    Default : Нет
    Forced : Нет


    Скриншоты для ознакомления




    Онлайн видео Стрела



    Стрела/Arrow (2016) WEB-DL [H.264/1080p -LQ] (сезон 5, серии 1 из 24) LostFilm (обновляемая)
    загрузка...
    Рейтинг →
     (голосов: 1, оценка 4/5, голосовать можно 1 раз )

    Другие торренты по теме:

  • Blake Neely - Стрела / Arrow (Original Television Soundtrack) (Season 1) (2014) [MP3|320 кб / с]<Soundtrack>
  • Стрела (Arrow) / (Сезон 1-3, серии 1-47 из 69) LostFilm (2012-2014) [MP4|1280x720 / 1280x718] <WEB-DL H.264> скачать через торрент бесплатно
  • Стрела / Arrow (2014-2015) WEB-DL [H.264 / 720p-LQ] [Сезон 3, Серия 1-1 (23)] [LostFilm] Обновляемая
  • Стрела / Arrow (2014-2015) WEB-DL [H.264 / 1080p-LQ] (Сезон 3, Серия 1-1 из 23) [Baibako] (Обновляемая)
  • Стрела / Arrow (2014-2015) WEB-DL [H.264 / 720p-LQ] (Сезон 3, Серия 1 из 23) [Baibako] (Обновляемая)
  • Стрела / Arrow (2012-2014) WEB-DLRip [H.264] (Сезон 1-3, серии 1-47 из ()) BaibaKo (обновляемая)
  • Стрела / Arrow (2014-2015) WEB-DL [H.264 / 1080p-LQ] (Сезон 3, Серии 1 из 23) [LostFilm] (Обновляемая) скачать через торрент бесплатно
  • Стрела / Arrow (2014) WEB-DLRip (сезон 3, серии 1 из ) Sony Sci-Fi (Обновляемая) скачать через торрент бесплатно


    • Комментарии (0):

      Информация

      Информация

        Посетители, находящиеся в группе Гости, не могут оставлять комментарии в данной новости.

        ↓ Меню




        ↓ Опрос

        Вы добавили сайт в закладки?
        Да
        Нет


        Top 10 за месяц (Фильмы)