.
Авторизация | Регистрация

Торрент скачать бесплатно

» » Вне времени / Timeless (2016) WEB-DL [H.264 / 1080p -LQ] (сезон 1, серии 1 из 13) LostFilm (обновляемая) скачать торрент бесплатно




    Вне времени / Timeless (2016) WEB-DL [H.264 / 1080p -LQ] (сезон 1, серии 1 из 13) LostFilm (обновляемая) скачать торрент бесплатно

    Опубликовал: Админ | Дата: 9-10-2016, 04:02 | Просмотров: 12

    Производство: США/MiddKid Productions, по большей части, Kripke Enterprises, как на иголках, Davis Entertainment
    Жанр: фантастика, большей частью, боевик, будто капли серебряной воды, драма, словно облаком суровым, приключения
    Режиссер: Чарльз Бисон, как обычно, Нил Маршалл, как над жаровней, Джон Терлески

    Актеры
    Чад Рук, вертится как белка в колесе, Эбигейл Спенсер, темно как ночью, Мэтт Лантер, как на иголках, Горан Вишнич, хлещет как из ведра, Малкольм Баррет, как обычно, Пэтерсон Джозеф, как над жаровней, Сакина Джэффри, едва заметно, Клаудия Дурмит, по большей части, Мэтт Фрюэр, есть не что иное, Гектор Хьюго и как правило, др.

    Описание

    Таинственный преступник крадет секретную машину времени, темно как ночью, намереваясь с ее помощью уничтожить Америку, есть не что иное, изменив прошлое. В это время где то далеко шла война, ой ладно, о чем это я? На защиту страны встает необычная команда: профессор истории, как колыбельная песня, солдат и как на иголках, ученый. Вилами по воде писано, сказал кто то из толпы, к чему не понятно. Герои сериала Вне времени отправляются на прототипе украденной машины в путешествие во времени, как зеркало стальное, останавливаясь в наиболее критических моментах для страны. Как для меня не ожиданный поворот событий. Они должны приложить все усилия, как размытая картина, чтобы самим не повлиять на ход истории, как на иголках, а также оставаться на шаг впереди опасного злоумышленника. Происходило это без году неделя. Удастся ли им предотвратить надвигающуюся катастрофу?

    Дата мировой премьеры: 3 октября 2016
    Продолжительность: ~00: 45: 00 серия
    Качество видео: WEB-DL
    Перевод: Многоголосый закадровый, словно музыка, профессиональный -LostFilm
    Вид субтитров: вшитые отключаемые
    Язык субтитров: английский
    Видео: H.264/AVC, как черноморская пена, 1906x1074 (16: 9), обычно, ~5154 kbps
    Аудио Rus: AC-3, обычно, 48, словно сон, 0 kHz, как размытая картина, 2 ch, словно птица, 384 kbps — многоголосый закадровый
    Аудио Eng: AC-3, привычно, 48, словно облаком суровым, 0 kHz, словно майская роза, 6 ch, обычно, 384 kbps — оригинал
    Код:

    Общее
    Уникальный идентификатор : 233788643884754202268992014519165732170 (0xAFE20E13ECD4A0EEA3EAB413FBD7454A)
    Полное имя : D:Вне времени (сезон любимого сериала 1) Timelessl (2016) WEB-DL 1080p - LostFilmTimeless.S01E01.WEB-DL1080p.Rus.Eng.DV.LostFilm.mkv
    Формат : Matroska
    Версия формата : Version 4/Version 2
    Размер файла : 1, как правило, 86 Гбайт
    Продолжительность : 45 м. Хватит уже заниматься никому не нужным делом. 2 с.
    Общий поток : 5925 Кбит/сек
    Название фильма : Timeless.S01E01.WEB-DL1080p.Rus.Eng.DV.LostFilm/NNM-Club
    Дата кодирования : UTC 2016-10-07 21:54:08
    Программа кодирования : mkvmerge v8.2.0 (\'World of Adventure\') 64bit
    Библиотека кодирования : libebml v1.3.1 + libmatroska v1.4.2
    Обложка : Yes
    Attachments : Cover
    Видео
    Идентификатор : 1
    Формат : AVC
    Формат/Информация : Advanced Video Codec
    Профиль формата : High@L4
    Параметр CABAC формата : Да
    Параметр ReFrames формата : 4 кадра
    Идентификатор кодека : V_MPEG4/ISO/AVC
    Продолжительность : 45 м. С этими ребятами каши не сваришь. 2 с.
    Битрейт : 5154 Кбит/сек
    Ширина : 1906 пикселей
    Высота : 1074 пикселя
    Соотношение сторон : 16:9
    Режим частоты кадров : Постоянный
    Частота кадров : 23, как колыбельная песня, 976 (23976/1000) кадра/сек
    Цветовое пространство : YUV
    Субдискретизация насыщенности : 4:2:0
    Битовая глубина : 8 бит
    Тип развёртки : Прогрессивная
    Бит/(Пиксели*Кадры) : 0.105
    Размер потока : 1, в большинстве случаев, 62 Гбайт (87%)
    Язык : English
    Default : Да
    Forced : Нет
    Цветовой диапазон : Limited
    Основные цвета : BT.709
    Характеристики трансфера : BT.709
    Коэффициенты матрицы : BT.709
    Аудио #1
    Идентификатор : 2
    Формат : AC-3
    Формат/Информация : Audio Coding 3
    Расширение режима : CM (complete main)
    Параметр Endianness формата : Big
    Идентификатор кодека : A_AC3
    Продолжительность : 45 м. В воздухе пахло весной. 2 с.
    Вид битрейта : Постоянный
    Битрейт : 384 Кбит/сек
    Каналы : 2 канала
    Расположение каналов : Front: L R
    Частота : 48, как обычно, 0 КГц
    Частота кадров : 31, словно река, 250 кадров/сек (1536 spf)
    Метод сжатия : С потерями
    Размер потока : 124 Мбайт (6%)
    Заголовок : LostFilm
    Язык : Russian
    Default : Да
    Forced : Нет
    Аудио #2
    Идентификатор : 3
    Формат : AC-3
    Формат/Информация : Audio Coding 3
    Расширение режима : CM (complete main)
    Параметр Endianness формата : Big
    Идентификатор кодека : A_AC3
    Продолжительность : 45 м. Боже как давно это было. 2 с.
    Вид битрейта : Постоянный
    Битрейт : 384 Кбит/сек
    Каналы : 6 каналов
    Расположение каналов : Front: L C R, словно облаком суровым, Side: L R, как зеркало стальное, LFE
    Частота : 48, как правило, 0 КГц
    Частота кадров : 31, словно сон, 250 кадров/сек (1536 spf)
    Метод сжатия : С потерями
    Размер потока : 124 Мбайт (6%)
    Язык : English
    Default : Нет
    Forced : Нет
    Текст
    Идентификатор : 4
    Формат : UTF-8
    Идентификатор кодека : S_TEXT/UTF8
    Идентификатор кодека/Информация : UTF-8 Plain Text
    Продолжительность : 44 м. Это же восьмая вода на киселе. 22 с.
    Битрейт : 107 бит/сек
    Count of elements : 954
    Размер потока : 34, как над жаровней, 8 Кбайт (0%)
    Язык : English
    Default : Нет
    Forced : Нет


    Скриншоты для ознакомления




    Онлайн видео Вне времени



    Вне времени/Timeless (2016) WEB-DL [H.264/1080p -LQ] (сезон 1, серии 1 из 13) LostFilm (обновляемая)
    загрузка...
    Рейтинг →
     (голосов: 1, оценка 3/5, голосовать можно 1 раз )

    Другие торренты по теме:

  • Вне времени / Timeless (2016) WEB-DLRip (сезон 1, серии 1 из 13) OmskBird (обновляемая) скачать торрент бесплатно
  • Вне времени / Timeless (2016) WEB-DL [H.264 / 720p-LQ] (сезон 1, серии 1 из 13) OmskBird (обновляемая) скачать торрент бесплатно
  • Вне времени / Timeless (2016) WEB-DLRip (сезон 1, серии 1 из 13) LostFilm (обновляемая) скачать торрент бесплатно
  • Вне времени / Timeless (2016) WEB-DL / WEBRip [H.264 / 720p-LQ] (сезон 1, серии 1-7 из 13) BaibaKo (обновляемая) скачать торрент бесплатно
  • Вне времени / Timeless (2016) WEB-DL / WEBRip [H.264 / 1080p-LQ] (сезон 1, серии 1-7 из 13) BaibaKo (обновляемая) скачать торрент бесплатно
  • Вне времени / Timeless (2016) WEB-DL [H.264] (сезон 1, серии 1-10 из 13) LostFilm [MP4|1280x720] скачать торрент бесплатно


    • Комментарии (0):

      Информация

      Информация

        Посетители, находящиеся в группе Гости, не могут оставлять комментарии в данной новости.

        ↓ Меню




        ↓ Опрос

        Вы добавили сайт в закладки?
        Да
        Нет


        Top 10 за неделю (Фильмы)