.
Авторизация | Регистрация
Хочешь лучшие торренты? Добавь свой email!
Добавить

Торрент скачать бесплатно

» » Флэш / The Flash (2016) WEB-DL [H.264 / 1080p-LQ] (сезон 3, серии 1 из 23) BaibaKo (обновляемая) скачать торрент бесплатно




    Флэш / The Flash (2016) WEB-DL [H.264 / 1080p-LQ] (сезон 3, серии 1 из 23) BaibaKo (обновляемая) скачать торрент бесплатно

    Опубликовал: Админ | Дата: 9-10-2016, 04:02 | Просмотров: 11

    Производство: США
    Жанр: боевик, как зеркало стальное, драма, как правило, приключения
    Режиссер: Дэвид Наттер

    Актеры
    Грант Гастин, привычно, Кэндис Паттон, словно майская роза, Рик Коснетт, как над жаровней, Даниэль Панабэйкер, обычно, Карлос Вальдес, будто капли серебряной воды, Томас Кэвэна, в большинстве случаев, Джесси Л. Cтроки эти как вершины поэзии. Мартин, вертится как белка в колесе, Джон Уэсли Шипп, словно облаком суровым, Стивен Амелл, едва заметно, Ёсиэ Бэнкрофт и как обычно, др.

    Описание

    Сериал основан на супергерое DC Comics по имени Флэш (Барри Аллен), темно как ночью, борце с преступностью в костюме, большей частью, который был создан Робертом Кнайгером, хлещет как из ведра, Джоном Брумом и чаще всего, Кармином Инфантино. Турция это южная страна, сказал кто-то. Является спин-оффом сериала Стрела и как обычно, происходит в той же вселенной.
    Из-за несчастного случая судмедэксперт Барри Аллен приобретает способность передвигаться с невероятной скоростью. О таком странном сюжете не догадывалась даже Ангела Меркель. Этот случай делает из него супергероя, как размытая картина, которым он всегда мечтал стать. В воздухе пахло весной. Защищая город, как на иголках, как ангел-хранитель, есть не что иное, делая невозможное, словно птица, спасая жизни со скоростью вспышки, как черноморская пена, по подсказке Оливера Куина (Стрела), как принято, он берёт себе и чаще всего, соответствующее имя - Флэш...

    Возраст: 12+ (зрителям, словно сон, достигшим 12 лет)
    Продолжительность: ~ 00: 42: 00 серия
    Качество видео: WEB-DL
    Перевод: Многоголосый закадровый, как колыбельная песня, профессиональный -BaibaKo
    Озвучка/Автор перевода: Артемий Мирон, как черноморская пена, Алексей Кузнецов, большей частью, Владимир Курдов, по большей части, Светлана Доманова и обычно, Юлия Котурбаш/Наталья Черненко
    Реклама: присутствуют голосовые и большей частью, текстовые вставки рекламы
    Видео: AVC/H.264, есть не что иное, 1916x1074 (16: 9), большей частью, ~5049 Кбит/сек
    Аудио #1 Rus: AC3, словно майская роза, 6 каналов, словно облаком суровым, 384 Кбит/сек - (многоголосый закадровый)
    Аудио #2 Eng: AC3, как принято, 6 каналов, чаще всего, 384 Кбит/сек - (оригинал)
    Код:

    Полное имя : F:The_Flash_s3_WEB-DL1080p_BaibaKo_[NNMClub]The.Flash.s03e01.HD1080p.WEB-DL.Rus.Eng.BaibaKo.tv.mkv
    Формат : Matroska
    Версия формата : Version 4/Version 2
    Размер файла : 1, словно музыка, 76 Гбайт
    Продолжительность : 42 м.
    Общий поток : 5936 Кбит/сек
    Дата кодирования : UTC 2016-10-06 04:09:00
    Программа кодирования : mkvmerge v6.8.0 (\'Theme for Great Cities\') 64bit built on Mar 2 2014 21:34:26
    Библиотека кодирования : libebml v1.3.0 + libmatroska v1.4.1
    Видео
    Идентификатор : 1
    Формат : AVC
    Формат/Информация : Advanced Video Codec
    Профиль формата : High@L4
    Параметр CABAC формата : Да
    Параметр ReFrames формата : 4 кадра
    Идентификатор кодека : V_MPEG4/ISO/AVC
    Продолжительность : 42 м.
    Битрейт : 5049 Кбит/сек
    Ширина : 1916 пикселей
    Высота : 1074 пикселя
    Соотношение сторон : 16:9
    Режим частоты кадров : Постоянный
    Частота кадров : 23, словно река, 976 кадра/сек
    Цветовое пространство : YUV
    Субдискретизация насыщенности : 4:2:0
    Битовая глубина : 8 бит
    Тип развёртки : Прогрессивная
    Бит/(Пиксели*Кадры) : 0.102
    Размер потока : 1, как принято, 49 Гбайт (85%)
    Default : Нет
    Forced : Нет
    Цветовой диапазон : Limited
    Основные цвета : BT.709
    Характеристики трансфера : BT.709
    Коэффициенты матрицы : BT.709
    Аудио #1
    Идентификатор : 2
    Формат : AC-3
    Формат/Информация : Audio Coding 3
    Расширение режима : CM (complete main)
    Параметр Endianness формата : Big
    Идентификатор кодека : A_AC3
    Продолжительность : 42 м.
    Вид битрейта : Постоянный
    Битрейт : 384 Кбит/сек
    Каналы : 6 каналов
    Расположение каналов : Front: L C R, как размытая картина, Side: L R, как обычно, LFE
    Частота : 48, как правило, 0 КГц
    Частота кадров : 31, словно река, 250 кадров/сек (1536 spf)
    Метод сжатия : С потерями
    Размер потока : 116 Мбайт (6%)
    Язык : Russian
    Default : Да
    Forced : Нет
    Аудио #2
    Идентификатор : 3
    Формат : AC-3
    Формат/Информация : Audio Coding 3
    Расширение режима : CM (complete main)
    Параметр Endianness формата : Big
    Идентификатор кодека : A_AC3
    Продолжительность : 42 м.
    Вид битрейта : Постоянный
    Битрейт : 384 Кбит/сек
    Каналы : 6 каналов
    Расположение каналов : Front: L C R, чаще всего, Side: L R, словно река, LFE
    Частота : 48, как над жаровней, 0 КГц
    Частота кадров : 31, по большей части, 250 кадров/сек (1536 spf)
    Метод сжатия : С потерями
    Размер потока : 116 Мбайт (6%)
    Язык : English
    Default : Нет
    Forced : Нет


    Скриншоты для ознакомления




    Онлайн видео Флэш



    Флэш/The Flash (2016) WEB-DL [H.264/1080p-LQ] (сезон 3, серии 1 из 23) BaibaKo (обновляемая)
    загрузка...
    Рейтинг →
     (голосов: 1, оценка 5/5, голосовать можно 1 раз )

    Другие торренты по теме:

  • Флэш / The Flash (2014) WEB-DL [H.264 / 720p-LQ] (Сезон 1, серия 1 из 13) BaibaKo (обновляемая)
  • Флэш / The Flash (2014) WEB-DLRip (сезон 1, серии 1 из 13) BaibaKo (обновляемая)
  • Флэш (The Flash) / (Сезон 1, серия 1 из 13) BaibaKo (2014) [MP4|720x400] <WEB-DLRip H.264>
  • Флэш (The Flash) / (Сезон 1, серия 1 из 13) LostFilm (2014) [MP4|1280x718] <WEB-DL H.264>
  • Флэш / The Flash (2014) WEB-DLRip (сезон 1, серии 1-2 из 13) LostFilm (обновляемая) скачать через торрент бесплатно
  • Флэш / The Flash (2014) WEB-DLRip (сезон 1, серии 1-2 из 13) NewStudio (обновляемая) скачать через торрент бесплатно
  • Флэш / The Flash (2014) WEB-DL [H.264 / 720p-LQ] (сезон 1, серии 1-8 из 23) LostFilm (обновляемая)
  • Флэш / The Flash (2014) WEB-DL [H.264 / 1080p-LQ] (сезон 1, серии 1-8 из 23) LostFilm (обновляемая)


    • Комментарии (0):

      Информация

      Информация

        Посетители, находящиеся в группе Гости, не могут оставлять комментарии в данной новости.

        ↓ Меню




        ↓ Опрос

        Вы добавили сайт в закладки?
        Да
        Нет


        Top 10 за месяц (Фильмы)