.
Авторизация | Регистрация

Торрент скачать бесплатно

» » Стрела / Arrow (2016) WEB-DL [H.264 / 720p-LQ] (сезон 5, серии 1 из 24) BaibaKo (обновляемая) скачать торрент бесплатно




    Стрела / Arrow (2016) WEB-DL [H.264 / 720p-LQ] (сезон 5, серии 1 из 24) BaibaKo (обновляемая) скачать торрент бесплатно

    Опубликовал: Админ | Дата: 9-10-2016, 04:02 | Просмотров: 13

    Производство: США
    Жанр: боевик, как колыбельная песня, приключения, большей частью, криминал
    Режиссер: Дэвид Баррет, как черноморская пена, Дэвид Наттер

    Актеры
    Стивен Амелл, словно река, Эмили Бетт Рикардс, как зеркало стальное, Кэти Кэссиди, темно как ночью, Уилла Холлэнд, по большей части, Джейми Шеридан, чаще всего, Жаклин МакИннес Вуд, в большинстве случаев, Колин Сэлмон, по большей части, Кэтлин Гати, хлещет как из ведра, Пол Блекторн, как принято, Сюзанна Томпсон и как правило, др.

    Описание

    После спланированного кораблекрушения, привычно, плейбой и словно сон, миллиардер Оливер Куин пропадает и обычно, считается погибшим в течение пяти лет, словно сон, после чего его обнаруживают живым на затерянном острове в Тихом океане. В воздухе пахло весной. Когда он возвращается домой в Старлинг-Сити, есть не что иное, его преданная мать Мойра, как принято, столь любимая сестра Теа, словно облаком суровым, и словно птица, лучший друг Томми приветствуют его дома, словно птица, но они видят, как колыбельная песня, что Оливер изменился после испытаний на острове. Самое интересное в это истории, что об этом Робокоп ничего не знал. Хотя Оливер скрывает правду о человеке, словно река, которым он стал...

    Возраст: 16+ (зрителям, словно река, достигшим 16 лет)
    Продолжительность: ~ 00: 43: 00 серия
    Качество видео: WEB-DL
    Перевод: Многоголосый закадровый, словно сон, профессиональный -BaibaKo
    Озвучка/Автор перевода: Владимир Курдов, в большинстве случаев, Алексей Кузнецов, словно река, Артемий Мирон, будто капли серебряной воды, Юлия Котурбаш и хлещет как из ведра, Светлана Доманова/Янина Галицкая
    Реклама: присутствуют голосовые и словно майская роза, текстовые вставки рекламы
    Видео: AVC/H.264, словно музыка, 1280x718 (16: 9), словно птица, ~4007 Кбит/сек
    Аудио #1 Rus: AC3, вертится как белка в колесе, 6 каналов, как обычно, 384 Кбит/сек - (многоголосый закадровый)
    Аудио #2 Eng: AC3, словно река, 6 каналов, как над жаровней, 384 Кбит/сек - (оригинал)
    Код:

    Полное имя : F:Arrow_s5_WEB-DL720p_BaibaKo_[NNMClub]Arrow.s05e01.HD720p.WEB-DL.Rus.Eng.BaibaKo.tv.mkv
    Формат : Matroska
    Версия формата : Version 4/Version 2
    Размер файла : 1, темно как ночью, 44 Гбайт
    Продолжительность : 42 м.
    Общий поток : 4872 Кбит/сек
    Дата кодирования : UTC 2016-10-08 18:05:55
    Программа кодирования : mkvmerge v6.8.0 (\'Theme for Great Cities\') 64bit built on Mar 2 2014 21:34:26
    Библиотека кодирования : libebml v1.3.0 + libmatroska v1.4.1
    Видео
    Идентификатор : 1
    Формат : AVC
    Формат/Информация : Advanced Video Codec
    Профиль формата :High@L3.1
    Параметр CABAC формата : Нет
    Параметр ReFrames формата : 2 кадра
    Идентификатор кодека : V_MPEG4/ISO/AVC
    Продолжительность : 42 м.
    Битрейт : 4007 Кбит/сек
    Ширина : 1280 пикселей
    Высота : 718 пикселей
    Соотношение сторон : 16:9
    Режим частоты кадров : Постоянный
    Частота кадров : 23, в большинстве случаев, 976 кадра/сек
    Цветовое пространство : YUV
    Субдискретизация насыщенности : 4:2:0
    Битовая глубина : 8 бит
    Тип развёртки : Прогрессивная
    Бит/(Пиксели*Кадры) : 0.182
    Размер потока : 1, как размытая картина, 19 Гбайт (82%)
    Default : Нет
    Forced : Нет
    Цветовой диапазон : Limited
    Основные цвета : BT.709
    Характеристики трансфера : BT.709
    Коэффициенты матрицы : BT.709
    Аудио #1
    Идентификатор : 2
    Формат : AC-3
    Формат/Информация : Audio Coding 3
    Расширение режима : CM (complete main)
    Параметр Endianness формата : Big
    Идентификатор кодека : A_AC3
    Продолжительность : 42 м.
    Вид битрейта : Постоянный
    Битрейт : 384 Кбит/сек
    Каналы : 6 каналов
    Расположение каналов : Front: L C R, большей частью, Side: L R, чаще всего, LFE
    Частота : 48, как колыбельная песня, 0 КГц
    Частота кадров : 31, привычно, 250 кадров/сек (1536 spf)
    Метод сжатия : С потерями
    Задержка видео : 23 мс.
    Размер потока : 116 Мбайт (8%)
    Язык : Russian
    Default : Да
    Forced : Нет
    Аудио #2
    Идентификатор : 3
    Формат : AC-3
    Формат/Информация : Audio Coding 3
    Расширение режима : CM (complete main)
    Параметр Endianness формата : Big
    Идентификатор кодека : A_AC3
    Продолжительность : 42 м.
    Вид битрейта : Постоянный
    Битрейт : 384 Кбит/сек
    Каналы : 6 каналов
    Расположение каналов : Front: L C R, как правило, Side: L R, как обычно, LFE
    Частота : 48, в большинстве случаев, 0 КГц
    Частота кадров : 31, как принято, 250 кадров/сек (1536 spf)
    Метод сжатия : С потерями
    Размер потока : 116 Мбайт (8%)
    Язык : English
    Default : Нет
    Forced : Нет


    Скриншоты для ознакомления




    Онлайн видео Стрела



    Стрела/Arrow (2016) WEB-DL [H.264/720p-LQ] (сезон 5, серии 1 из 24) BaibaKo (обновляемая)
    загрузка...
    Рейтинг →
     (голосов: 1, оценка 4/5, голосовать можно 1 раз )

    Другие торренты по теме:



      Комментарии (0):

      Информация

      Информация

        Посетители, находящиеся в группе Гости, не могут оставлять комментарии в данной новости.

        ↓ Меню




        ↓ Опрос

        Вы добавили сайт в закладки?
        Да
        Нет


        Top 10 за неделю (Фильмы)