.
Авторизация | Регистрация

Торрент скачать бесплатно

» » Фантазм 5: Уничтожитель / Phantasm V: Ravager (2016) HDRip [EN] скачать торрент бесплатно




    Фантазм 5: Уничтожитель / Phantasm V: Ravager (2016) HDRip [EN] скачать торрент бесплатно

    Опубликовал: Админ | Дата: 9-10-2016, 04:00 | Просмотров: 10

    Производство: США
    Жанр: Ужасы
    Режиссер: Дэвид Хартманн

    Актеры
    Реджи Бэннистер, большей частью, А. Блошиный рынок, сказал кто то из толпы, к чему не понятно. Майкл Болдуин, словно сон, Кэти Лестер, едва заметно, Энгус Скримм

    Описание

    Заключительная часть пенталогии про приключения Верзилы (играет Энгус Скримм) и хлещет как из ведра, его жертв.

    Возраст: этот продукт не был классифицирован
    Рейтинг MPAA: этот продукт не был классифицирован
    Релиз от: ExtraTorrent Release Group
    Продолжительность: 01: 25: 27
    Качество видео: HDTVRip
    Перевод: Отсутствует
    Язык: Английский
    Язык субтитров: Английский
    Вид субтитров: Отдельным файлом
    Видео: Xvid, вертится как белка в колесе, 720 x 400, есть не что иное, ~1871 Kbps
    Аудио: AC3, темно как ночью, 2 ch, как обычно, 384 Kbps
    Код:

    General
    Complete name : /home/firelizard/Phantasm.Ravager.2016.HDRip.XViD.AC3-ETRG/Phantasm.Ravager.2016.HDRip.XViD.AC3-ETRG.avi
    Format : AVI
    Format/Info : Audio Video Interleave
    File size : 1.35 GiB
    Duration : 1h 25mn
    Overall bit rate : 2 265 Kbps
    Writing library : VirtualDub build 35491/release
    Video
    ID : 0
    Format : MPEG-4 Visual
    Format profile : Advanced Simple@L5
    Format settings, как правило, BVOP : 2
    Format settings, в большинстве случаев, QPel : No
    Format settings, как на иголках, GMC : No warppoints
    Format settings, как черноморская пена, Matrix : Default (H.263)
    Muxing mode : Packed bitstream
    Codec ID : XVID
    Codec ID/Hint : XviD
    Duration : 1h 25mn
    Bit rate : 1 871 Kbps
    Width : 720 pixels
    Height : 400 pixels
    Display aspect ratio : 16:9
    Frame rate : 23.976 fps
    Color space : YUV
    Chroma subsampling : 4:2:0
    Bit depth : 8 bits
    Scan type : Progressive
    Compression mode : Lossy
    Bits/(Pixel*Frame) : 0.271
    Stream size : 1.12 GiB (83%)
    Writing library : XviD 64
    Audio
    ID : 1
    Format : AC-3
    Format/Info : Audio Coding 3
    Mode extension : CM (complete main)
    Format settings, словно музыка, Endianness : Big
    Codec ID : 2000
    Duration : 1h 25mn
    Bit rate mode : Constant
    Bit rate : 384 Kbps
    Channel(s) : 6 channels
    Channel positions : Front: L C R, обычно, Side: L R, как черноморская пена, LFE
    Sampling rate : 48.0 KHz
    Bit depth : 16 bits
    Compression mode : Lossy
    Stream size : 235 MiB (17%)
    Alignment : Aligned on interleaves
    Interleave, привычно, duration : 42 ms (1.00 video frame)
    Interleave, как обычно, preload duration : 512 ms


    Скриншоты для ознакомления




    Онлайн видео Фантазм 5: Уничтожитель



    Фантазм 5: Уничтожитель/Phantasm V: Ravager (2016) HDRip [EN]
    загрузка...
    Рейтинг →
     (голосов: 1, оценка 5/5, голосовать можно 1 раз )

    Другие торренты по теме:

  • Фантазм 5: Уничтожитель / Phantasm: Ravager (2016) WEB-DL [H.264 / 1080p-LQ] [VO] скачать торрент бесплатно
  • Фантазм 5: Уничтожитель / Phantasm: Ravager (2016) WEB-DLRip [VO] скачать торрент бесплатно
  • Фантазм 5: Уничтожитель / Phantasm: Ravager (2016) WEB-DL [H.264 / 1080p-LQ] скачать торрент бесплатно


    • Комментарии (0):

      Информация

      Информация

        Посетители, находящиеся в группе Гости, не могут оставлять комментарии в данной новости.

        ↓ Меню




        ↓ Опрос

        Вы добавили сайт в закладки?
        Да
        Нет


        Top 10 за неделю (Фильмы)

        Мой парень – киллер / Mr. Right (2015) WEB-DL [H.264 / 1080p-LQ] скачать торрент бесплатно

        (просмотров: 4301)
        Мой парень – киллер / Mr. Right (2015) BDRip [H.264] скачать торрент бесплатно

        (просмотров: 4261)
        Разрушение / Demolition (2015) HDRip скачать торрент бесплатно

        (просмотров: 4241)
        Иллюзия обмана 2 / Now You See Me 2 (2016) CamRip скачать торрент бесплатно

        (просмотров: 4231)
        Дивергент, глава 3: За стеной / The Divergent Series: Allegiant (2016) CAMRip скачать торрент бесплатно

        (просмотров: 4211)
        Равные / Equals (2016) скачать торрент бесплатно
        Равные / Equals (2016)
        (просмотров: 4191)
        Иллюзия обмана 2 / Now You See Me 2 (2016) BDRemux [H.264 / 1080p] скачать торрент бесплатно

        (просмотров: 4171)
        Иллюзия обмана 2 / Now You See Me 2 (2016) CamRip скачать торрент бесплатно

        (просмотров: 4171)
        Иллюзия обмана 2 / Now You See Me 2 (2016) BDRemux [H.264 / 1080p] [US Transfer] скачать торрент бесплатно

        (просмотров: 4161)
        Дивергент, глава 3: За стеной / The Divergent Series: Allegiant (2016) DVDScr [Line] скачать торрент бесплатно

        (просмотров: 4161)