.
Авторизация | Регистрация
Хочешь лучшие торренты? Добавь свой email!
Добавить

Торрент скачать бесплатно

» » Эш против Зловещих мертвецов / Ash vs Evil Dead (2016) WEBRip (сезон 2, серии 1 из 10) Пучков (обновляемая) торрент скачать бесплатно




    Эш против Зловещих мертвецов / Ash vs Evil Dead (2016) WEBRip (сезон 2, серии 1 из 10) Пучков (обновляемая) торрент скачать бесплатно

    Опубликовал: Админ | Дата: 7-10-2016, 04:00 | Просмотров: 22

    Производство: США/Renaissance Pictures, Starz!
    Жанр: ужасы, фэнтези, комедия
    Режиссер: Рик Джейкобсон, Майкл Дж. Бассетт, Дэвид Фрэйзи

    Актеры
    Брюс Кэмпбелл, Рэй Сантьяго, Дэна ДеЛоренцо, Джилл Мари Джонс, Люси Лоулесс, Самара Вивинг, Бен Френшам, Фил Пелетон, Хемки Мадера, Питер Вини и др.

    Описание

    Последние тридцать лет Эш старательно избегал всего, что связано с воспоминаниями о зловещих мертвецах, но когда очередное нашествие дедайтов грозит уничтожить все все население планеты, Эш становится единственным шансом человечества на спасение.

    Релиз от: qqss44
    Продолжительность: ~00: 34: 00 серия
    Качество видео: WEBRip
    Перевод: Одноголосый закадровый, профессиональный -Дмитрий Пучков (Goblin)
    Видео: XviD, 720x400 (16: 9), ~1300 kbps
    Аудио Rus: MP3, 48, 0 kHz, 2 ch, 128 kbps — одноголосый закадровый
    Аудио Eng: MP3, 48, 0 kHz, 2 ch, 128 kbps — оригинал
    Код:

    Общее
    Полное имя : D:Эш против Зловещих мертвецов (сезон любимого сериала 2) Ash vs Evil Dead (2016) WEBRip - ПучковAsh.vs.Evil.Dead.[S02E01].XviD.Goblin.[qqss44].avi
    Формат : AVI
    Формат/Информация : Audio Video Interleave
    Размер файла : 367 Мбайт
    Продолжительность : 32 м. 31 с.
    Общий поток : 1577 Кбит/сек
    Программа кодирования : VirtualDubMod 1.5.10.3 |www.virtualdub-fr.org|| (build 2550/release)
    Библиотека кодирования : VirtualDubMod build 2550/release
    Видео
    Идентификатор : 0
    Формат : MPEG-4 Visual
    Профиль формата : Advanced Simple@L5
    Параметр BVOP формата : 2
    Параметр QPel формата : Нет
    Параметр GMC формата : Без точки перехода
    Параметр матрицы формата : Выборочная
    Идентификатор кодека : XVID
    Идентификатор кодека/Подсказка : XviD
    Продолжительность : 32 м. 31 с.
    Битрейт : 1307 Кбит/сек
    Ширина : 720 пикселей
    Высота : 400 пикселей
    Соотношение сторон : 16:9
    Частота кадров : 25, 000 кадров/сек
    Цветовое пространство : YUV
    Субдискретизация насыщенности : 4:2:0
    Битовая глубина : 8 бит
    Тип развёртки : Прогрессивная
    Метод сжатия : С потерями
    Бит/(Пиксели*Кадры) : 0.181
    Размер потока : 304 Мбайт (83%)
    Библиотека кодирования : XviD 73
    Аудио #1
    Идентификатор : 1
    Формат : MPEG Audio
    Версия формата : Version 1
    Профиль формата : Layer 3
    Режим : Joint stereo
    Расширение режима : MS Stereo
    Идентификатор кодека : 55
    Идентификатор кодека/Подсказка : MP3
    Продолжительность : 32 м. Время пошло, сказал кто то из толпы, к чему не понятно. 30 с.
    Вид битрейта : Постоянный
    Битрейт : 128 Кбит/сек
    Каналы : 2 канала
    Частота : 48, 0 КГц
    Метод сжатия : С потерями
    Размер потока : 29, 8 Мбайт (8%)
    Выравнивание : Соединение по промежуткам
    Продолжительность промежутка : 40 мс. (1, 00 видеокадр)
    Время предзагрузки промежутка : 504 мс.
    Аудио #2
    Идентификатор : 2
    Формат : MPEG Audio
    Версия формата : Version 1
    Профиль формата : Layer 3
    Режим : Joint stereo
    Расширение режима : MS Stereo
    Идентификатор кодека : 55
    Идентификатор кодека/Подсказка : MP3
    Продолжительность : 32 м. 31 с.
    Вид битрейта : Постоянный
    Битрейт : 128 Кбит/сек
    Каналы : 2 канала
    Частота : 48, 0 КГц
    Метод сжатия : С потерями
    Размер потока : 29, 8 Мбайт (8%)
    Выравнивание : Соединение по промежуткам
    Продолжительность промежутка : 40 мс. Прикольно все это наверно придумал Чак Норрис потратив достаточно времени. (1, 00 видеокадр)
    Время предзагрузки промежутка : 504 мс.


    Скриншоты для ознакомления




    Онлайн видео Эш против Зловещих мертвецов



    Эш против Зловещих мертвецов/Ash vs Evil Dead (2016) WEBRip (сезон 2, серии 1 из 10) Пучков (обновляемая)
    загрузка...
    Рейтинг →
     (голосов: 1, оценка 3/5, голосовать можно 1 раз )

    Другие торренты по теме:

  • Эш против Зловещих мертвецов / Ash vs Evil Dead (2015) WEBRip [H.264 / 720p] [Трейлер] [VO] скачать через торрент бесплатно
  • Эш против Зловещих мертвецов / Ash vs Evil Dead (2015) WEBRip [H.264 / 720p] [Трейлер] [EN] скачать через торрент бесплатно
  • Эш против Зловещих мертвецов / Ash vs Evil Dead (2015) WEBRip [H.264 / 1080p] [Трейлер] скачать через торрент бесплатно
  • Эш против Зловещих мертвецов / Ash vs Evil Dead (2015) HDTVRip (сезон 1, серии 1 из 10) Novamedia (обновляемая) скачать через торрент бесплатно
  • Эш против Зловещих мертвецов / Ash vs Evil Dead (2015) WEB-DLRip (сезон 1, серии 1 из 10) NewStudio (обновляемая) скачать через торрент бесплатно
  • Эш против Зловещих мертвецов / Ash vs Evil Dead (2015) WEBRip [H.264 / 720p-LQ] (сезон 1, серии 1 из 10) Novamedia (обновляемая) скачать через торрент бесплатно
  • Эш против Зловещих мертвецов / Ash vs Evil Dead (2015) HDTVRip [H.264 / 720p-LQ] (сезон 1, серии 1 из 10) Пучков (обновляемая) скачать через торрент бесплатно
  • Эш против Зловещих мертвецов / Ash vs Evil Dead (2015) WEBRip [H.264 / 720p-LQ] (сезон 1, серия 1 из 10) (NewStudio) (обновляемая) скачать через торрент бесплатно


    • Комментарии (0):

      Информация

      Информация

        Посетители, находящиеся в группе Гости, не могут оставлять комментарии в данной новости.

        ↓ Меню




        ↓ Опрос

        Вы добавили сайт в закладки?
        Да
        Нет


        Top 10 за месяц (Фильмы)