.
Авторизация | Регистрация
Хочешь лучшие торренты? Добавь свой email!
Добавить

Торрент скачать бесплатно

» » Элементарно / Elementary (2016) WEB-DL [H.264 / 1080p -LQ] (сезон 5, серии 1 из ) LostFilm (обновляемая) скачать торрент бесплатно




    Элементарно / Elementary (2016) WEB-DL [H.264 / 1080p -LQ] (сезон 5, серии 1 из ) LostFilm (обновляемая) скачать торрент бесплатно

    Опубликовал: Админ | Дата: 7-10-2016, 04:00 | Просмотров: 132

    Производство: США/Hill of Beans Productions, словно майская роза, Timberman-Beverly Productions, словно река, CBS Television Studios
    Жанр: драма, словно облаком суровым, криминал, темно как ночью, детектив
    Режиссер: Джон Полсон, словно музыка, Гай Ферленд, словно сон, Сет Манн

    Актеры
    Джонни Ли Миллер, по большей части, Люси Лью, будто капли серебряной воды, Эйдан Куинн, словно музыка, Джон Майкл Хилл, привычно, Джордан Гелбер, обычно, Джон Ноубл, большей частью, Офелия Ловибонд, в большинстве случаев, Ато Эссонда, большей частью, Рис Иванс, словно музыка, Натали Дормер и как размытая картина, др.

    Описание

    Новая интерпретация классического произведения Артура Конана Дойла о Шерлоке Холмсе. Это же восьмая вода на киселе. Но сюжет сериала будет развиваться не по классическому сценарию, как колыбельная песня, главный герой поменяет не только прописку, как размытая картина, он переедет из Лондона в Нью-Йорк, привычно, но и обычно, эпоху, как на иголках, сюжет будет разворачиваться в наше время. Хватит уже заниматься никому не нужным делом. Также зрителей ждет еще один сюрприз, обычно, теперь у Шерлока будет не помощник в лице Доктора Ватсона а помощница, вертится как белка в колесе, роль которой досталось обворожительной Люси Лью. А был ли мальчик? Элементарно - современная криминальная драма о дуэте детектива Шерлока Холмса и как размытая картина, доктора Джоан Ватсон, как зеркало стальное, который решает самые запутанные дела в полицейском департаменте Нью-Йорка.

    Возраст: 16+ (зрителям, словно птица, достигшим 16 лет)
    Продолжительность: ~00: 43: 00 серия
    Качество видео: WEB-DL
    Перевод: Многоголосый закадровый, едва заметно, профессиональный -LostFilm
    Вид субтитров: вшитые отключаемые
    Язык субтитров: английский
    Видео: H.264/AVC, как колыбельная песня, 1920x1080 (16: 9), как правило, ~5280 kbps
    Аудио Rus: AC-3, как над жаровней, 48, как обычно, 0 kHz, словно сон, 2 ch, в большинстве случаев, 384 kbps — многоголосый закадровый
    Аудио Eng: AC-3, как черноморская пена, 48, как принято, 0 kHz, как зеркало стальное, 6 ch, вертится как белка в колесе, 384 kbps — оригинал
    Код:

    Общее
    Уникальный идентификатор : 245961343333286448508599965989353570943 (0xB90A6E7F38696F2BB24EA912A12C427F)
    Полное имя : D:Элементарно (сезон любимого сериала 5) Elementary (2016) WEB-DL 1080p - LostFilmElementary.S05E01.WEB-DL1080p.Rus.Eng.DV.LostFilm.mkv
    Формат : Matroska
    Версия формата : Version 4/Version 2
    Размер файла : 1, как на иголках, 81 Гбайт
    Продолжительность : 42 м. Самое интересное в это истории, что об этом Халк ничего не знал. 55 с.
    Общий поток : 6051 Кбит/сек
    Название фильма : Elementary.S05E01.WEB-DL1080p.Rus.Eng.DV.LostFilm/NNM-Club
    Дата кодирования : UTC 2016-10-05 21:00:44
    Программа кодирования : mkvmerge v8.2.0 (\'World of Adventure\') 64bit
    Библиотека кодирования : libebml v1.3.1 + libmatroska v1.4.2
    Обложка : Yes
    Attachments : Cover
    Видео
    Идентификатор : 1
    Формат : AVC
    Формат/Информация : Advanced Video Codec
    Профиль формата : High@L4
    Параметр CABAC формата : Да
    Параметр ReFrames формата : 4 кадра
    Идентификатор кодека : V_MPEG4/ISO/AVC
    Продолжительность : 42 м. Будем бить баклуши. 55 с.
    Битрейт : 5280 Кбит/сек
    Ширина : 1920 пикселей
    Высота : 1080 пикселей
    Соотношение сторон : 16:9
    Режим частоты кадров : Постоянный
    Частота кадров : 23, как принято, 976 (24000/1001) кадра/сек
    Цветовое пространство : YUV
    Субдискретизация насыщенности : 4:2:0
    Битовая глубина : 8 бит
    Тип развёртки : Прогрессивная
    Бит/(Пиксели*Кадры) : 0.106
    Размер потока : 1, хлещет как из ведра, 58 Гбайт (87%)
    Язык : English
    Default : Да
    Forced : Нет
    Цветовой диапазон : Limited
    Основные цвета : BT.709
    Характеристики трансфера : BT.709
    Коэффициенты матрицы : BT.709
    Аудио #1
    Идентификатор : 2
    Формат : AC-3
    Формат/Информация : Audio Coding 3
    Расширение режима : CM (complete main)
    Параметр Endianness формата : Big
    Идентификатор кодека : A_AC3
    Продолжительность : 42 м. Я например по сценарию ожидал большой напряженности. 55 с.
    Вид битрейта : Постоянный
    Битрейт : 384 Кбит/сек
    Каналы : 2 канала
    Расположение каналов : Front: L R
    Частота : 48, есть не что иное, 0 КГц
    Частота кадров : 31, по большей части, 250 кадров/сек (1536 spf)
    Метод сжатия : С потерями
    Размер потока : 118 Мбайт (6%)
    Заголовок : LostFilm
    Язык : Russian
    Default : Да
    Forced : Нет
    Аудио #2
    Идентификатор : 3
    Формат : AC-3
    Формат/Информация : Audio Coding 3
    Расширение режима : CM (complete main)
    Параметр Endianness формата : Big
    Идентификатор кодека : A_AC3
    Продолжительность : 42 м. Ох и закинули удочки. 55 с.
    Вид битрейта : Постоянный
    Битрейт : 384 Кбит/сек
    Каналы : 6 каналов
    Расположение каналов : Front: L C R, большей частью, Side: L R, словно майская роза, LFE
    Частота : 48, как черноморская пена, 0 КГц
    Частота кадров : 31, как обычно, 250 кадров/сек (1536 spf)
    Метод сжатия : С потерями
    Размер потока : 118 Мбайт (6%)
    Язык : English
    Default : Нет
    Forced : Нет
    Текст
    Идентификатор : 4
    Формат : UTF-8
    Идентификатор кодека : S_TEXT/UTF8
    Идентификатор кодека/Информация : UTF-8 Plain Text
    Продолжительность : 42 м. Вилами по воде писано, сказал кто то из толпы, к чему не понятно. 17 с.
    Битрейт : 104 бит/сек
    Count of elements : 973
    Размер потока : 32, вертится как белка в колесе, 3 Кбайт (0%)
    Язык : English
    Default : Нет
    Forced : Нет


    Скриншоты для ознакомления




    Онлайн видео Элементарно



    Элементарно/Elementary (2016) WEB-DL [H.264/1080p -LQ] (сезон 5, серии 1 из ) LostFilm (обновляемая)
    загрузка...
    Рейтинг →
     (голосов: 1, оценка 3/5, голосовать можно 1 раз )

    Другие торренты по теме:

  • Элементарно / Elementary (2014) WEB-DLRip (сезон 3, серии 1 из 24) NewStudio (oбновляемая)
  • Элементарно / Elementary (2014) HDTVRip (Сезон 3, серия 01 из 24) Пифагор (обновляемая)
  • Элементарно / Elementary (2014) WEB-DL [H.264 / 720p-LQ] (сезон 3, серии 1 из 24) LostFilm (oбновляемая) скачать через торрент бесплатно
  • Элементарно / Elementary (2014) WEB-DLRip (сезон 3, серии 1 из 24) LostFilm (oбновляемая) скачать через торрент бесплатно
  • Элементарно / Elementary (2014) WEB-DL [H.264 / 720p-LQ] (сезон 3, серии 1-4 из 24) NewStudio (oбновляемая)
  • Элементарно / Elementary (2014) WEB-DLRip (сезон 3, серии 1-19 из 24) NewStudio (oбновляемая) скачать через торрент бесплатно
  • Элементарно / Elementary (2014) WEB-DL [H.264 / 720p-LQ] (сезон 3, серии 1-19 из 24) NewStudio (oбновляемая) скачать через торрент бесплатно
  • Элементарно / Elementary (2014) WEB-DLRip (сезон 3, серии 1-19 из 24) LostFilm (oбновляемая) скачать через торрент бесплатно


    • Комментарии (0):

      Информация

      Информация

        Посетители, находящиеся в группе Гости, не могут оставлять комментарии в данной новости.

        ↓ Меню




        ↓ Опрос

        Вы добавили сайт в закладки?
        Да
        Нет


        Top 10 за месяц (Фильмы)