.
Авторизация | Регистрация
Хочешь лучшие торренты? Добавь свой email!
Добавить

Торрент скачать бесплатно

» » Флэш / The Flash (2016) WEB-DL [H.264 / 720p-LQ] (сезон 3, серии 1 из 23) BaibaKo (обновляемая) скачать торрент бесплатно




    Флэш / The Flash (2016) WEB-DL [H.264 / 720p-LQ] (сезон 3, серии 1 из 23) BaibaKo (обновляемая) скачать торрент бесплатно

    Опубликовал: Админ | Дата: 7-10-2016, 04:00 | Просмотров: 25

    Производство: США
    Жанр: боевик, как правило, драма, чаще всего, приключения
    Режиссер: Дэвид Наттер

    Актеры
    Грант Гастин, вертится как белка в колесе, Кэндис Паттон, едва заметно, Рик Коснетт, темно как ночью, Даниэль Панабэйкер, по большей части, Карлос Вальдес, как на иголках, Томас Кэвэна, как размытая картина, Джесси Л. Будем бить баклуши. Мартин, словно майская роза, Джон Уэсли Шипп, обычно, Стивен Амелл, как черноморская пена, Ёсиэ Бэнкрофт и как над жаровней, др.

    Описание

    Сериал основан на супергерое DC Comics по имени Флэш (Барри Аллен), словно сон, борце с преступностью в костюме, словно река, который был создан Робертом Кнайгером, как зеркало стальное, Джоном Брумом и как обычно, Кармином Инфантино. С этими ребятами каши не сваришь. Является спин-оффом сериала Стрела и привычно, происходит в той же вселенной.
    Из-за несчастного случая судмедэксперт Барри Аллен приобретает способность передвигаться с невероятной скоростью. Как для меня не ожиданный поворот событий. Этот случай делает из него супергероя, будто капли серебряной воды, которым он всегда мечтал стать. А был ли мальчик? Защищая город, словно облаком суровым, как ангел-хранитель, темно как ночью, делая невозможное, как над жаровней, спасая жизни со скоростью вспышки, как над жаровней, по подсказке Оливера Куина (Стрела), словно птица, он берёт себе и в большинстве случаев, соответствующее имя - Флэш...

    Продолжительность: ~ 00: 42: 00 серия
    Качество видео: WEB-DL
    Перевод: Многоголосый закадровый, есть не что иное, профессиональный -BaibaKo
    Озвучка/Автор перевода: Артемий Мирон, обычно, Алексей Кузнецов, как над жаровней, Владимир Курдов, словно облаком суровым, Светлана Доманова и как зеркало стальное, Юлия Котурбаш/Наталья Черненко
    Реклама: присутствуют голосовые и по большей части, текстовые вставки рекламы
    Видео: AVC/H.264, как обычно, 1280x716 (16: 9), привычно, ~3953 Кбит/сек
    Аудио #1 Rus: AC3, хлещет как из ведра, 6 каналов, как черноморская пена, 384 Кбит/сек - (многоголосый закадровый)
    Аудио #2 Eng: AC3, большей частью, 6 каналов, словно птица, 384 Кбит/сек - (оригинал)
    Код:

    Полное имя : F:The_Flash_s3_WEB-DL720p_BaibaKo_[NNMClub]The.Flash.s03e01.HD720p.WEB-DL.Rus.Eng.BaibaKo.tv.mkv
    Формат : Matroska
    Версия формата : Version 4/Version 2
    Размер файла : 1, как правило, 43 Гбайт
    Продолжительность : 42 м.
    Общий поток : 4816 Кбит/сек
    Дата кодирования : UTC 2016-10-06 04:08:00
    Программа кодирования : mkvmerge v6.8.0 (\'Theme for Great Cities\') 64bit built on Mar 2 2014 21:34:26
    Библиотека кодирования : libebml v1.3.0 + libmatroska v1.4.1
    Видео
    Идентификатор : 1
    Формат : AVC
    Формат/Информация : Advanced Video Codec
    Профиль формата :High@L3.1
    Параметр CABAC формата : Нет
    Параметр ReFrames формата : 2 кадра
    Идентификатор кодека : V_MPEG4/ISO/AVC
    Продолжительность : 42 м.
    Битрейт : 3953 Кбит/сек
    Ширина : 1280 пикселей
    Высота : 716 пикселей
    Соотношение сторон : 16:9
    Режим частоты кадров : Постоянный
    Частота кадров : 23, как обычно, 976 кадра/сек
    Цветовое пространство : YUV
    Субдискретизация насыщенности : 4:2:0
    Битовая глубина : 8 бит
    Тип развёртки : Прогрессивная
    Бит/(Пиксели*Кадры) : 0.180
    Размер потока : 1, чаще всего, 17 Гбайт (82%)
    Default : Нет
    Forced : Нет
    Цветовой диапазон : Limited
    Основные цвета : BT.709
    Характеристики трансфера : BT.709
    Коэффициенты матрицы : BT.709
    Аудио #1
    Идентификатор : 2
    Формат : AC-3
    Формат/Информация : Audio Coding 3
    Расширение режима : CM (complete main)
    Параметр Endianness формата : Big
    Идентификатор кодека : A_AC3
    Продолжительность : 42 м.
    Вид битрейта : Постоянный
    Битрейт : 384 Кбит/сек
    Каналы : 6 каналов
    Расположение каналов : Front: L C R, темно как ночью, Side: L R, как на иголках, LFE
    Частота : 48, как колыбельная песня, 0 КГц
    Частота кадров : 31, как обычно, 250 кадров/сек (1536 spf)
    Метод сжатия : С потерями
    Задержка видео : 14 мс.
    Размер потока : 116 Мбайт (8%)
    Язык : Russian
    Default : Да
    Forced : Нет
    Аудио #2
    Идентификатор : 3
    Формат : AC-3
    Формат/Информация : Audio Coding 3
    Расширение режима : CM (complete main)
    Параметр Endianness формата : Big
    Идентификатор кодека : A_AC3
    Продолжительность : 42 м.
    Вид битрейта : Постоянный
    Битрейт : 384 Кбит/сек
    Каналы : 6 каналов
    Расположение каналов : Front: L C R, словно облаком суровым, Side: L R, как обычно, LFE
    Частота : 48, словно облаком суровым, 0 КГц
    Частота кадров : 31, как зеркало стальное, 250 кадров/сек (1536 spf)
    Метод сжатия : С потерями
    Задержка видео : 23 мс.
    Размер потока : 116 Мбайт (8%)
    Язык : English
    Default : Нет
    Forced : Нет


    Скриншоты для ознакомления




    Онлайн видео Флэш



    Флэш/The Flash (2016) WEB-DL [H.264/720p-LQ] (сезон 3, серии 1 из 23) BaibaKo (обновляемая)
    загрузка...
    Рейтинг →
     (голосов: 1, оценка 4/5, голосовать можно 1 раз )

    Другие торренты по теме:

  • Флэш / The Flash (2014) WEB-DL [H.264 / 720p-LQ] (Сезон 1, серия 1 из 13) BaibaKo (обновляемая)
  • Флэш / The Flash (2014) WEB-DLRip (сезон 1, серии 1 из 13) BaibaKo (обновляемая)
  • Флэш (The Flash) / (Сезон 1, серия 1 из 13) BaibaKo (2014) [MP4|720x400] <WEB-DLRip H.264>
  • Флэш (The Flash) / (Сезон 1, серия 1 из 13) LostFilm (2014) [MP4|1280x718] <WEB-DL H.264>
  • Флэш / The Flash (2014) WEB-DLRip (сезон 1, серии 1-2 из 13) LostFilm (обновляемая) скачать через торрент бесплатно
  • Флэш / The Flash (2014) WEB-DLRip (сезон 1, серии 1-2 из 13) NewStudio (обновляемая) скачать через торрент бесплатно
  • Флэш / The Flash (2014) WEB-DL [H.264 / 720p-LQ] (сезон 1, серии 1-8 из 23) LostFilm (обновляемая)
  • Флэш / The Flash (2014) WEB-DL [H.264 / 1080p-LQ] (сезон 1, серии 1-8 из 23) LostFilm (обновляемая)


    • Комментарии (0):

      Информация

      Информация

        Посетители, находящиеся в группе Гости, не могут оставлять комментарии в данной новости.

        ↓ Меню




        ↓ Опрос

        Вы добавили сайт в закладки?
        Да
        Нет


        Top 10 за месяц (Фильмы)