.
Авторизация | Регистрация
Хочешь лучшие торренты? Добавь свой email!
Добавить

Торрент скачать бесплатно

» » Вне времени / Timeless (2016) WEB-DLRip (сезон 1, серии 1 из 13) OmskBird (обновляемая) торрент скачать бесплатно




    Вне времени / Timeless (2016) WEB-DLRip (сезон 1, серии 1 из 13) OmskBird (обновляемая) торрент скачать бесплатно

    Опубликовал: Админ | Дата: 7-10-2016, 04:00 | Просмотров: 28

    Производство: США
    Жанр: Драма, Фантастика, Приключения
    Режиссер: Чарльз Бисон, Нил Маршалл

    Актеры
    Чад Рук, Эбигейл Спенсер, Мэтт Лантер, Горан Вишнич, Малкольм Баррет, Пэтерсон Джозеф, Сакина Джэффри, Клаудия Дурмит, Мэтт Фрюэр, Гектор Хьюго и др.

    Описание

    Таинственный преступник крадет секретную машину времени, намереваясь с ее помощью уничтожить Америку, изменив прошлое. На защиту страны встает необычная команда: профессор истории, солдат и ученый. Герои сериала Вне времени отправляются на прототипе украденной машины в путешествие во времени, останавливаясь в наиболее критических моментах для страны. Они должны приложить все усилия, чтобы самим не повлиять на ход истории, а также оставаться на шаг впереди опасного злоумышленника. Удастся ли им предотвратить надвигающуюся катастрофу?

    Дата мировой премьеры: 3 октября 2016
    Релиз от: OmskBird
    Продолжительность: ~ 00: 45: 00 серия
    Качество видео: WEB-DLRip
    Перевод: Многоголосый закадровый, профессиональный
    Озвучка/Автор перевода: OmskBird
    Реклама: присутствуют аудио вставки рекламы
    Видео: XviD, 720x400 (1.80: 1), ~1951 kbps, 23.976 fps, 0.28 bit/pixel
    Аудио # rus: AC3, 6 ch, 384 kbps, CBR
    Аудио # eng: AC3, 6 ch, 384 kbps, CBR
    Код:

    General
    Complete name : G:FilmsTimeless.S01.400p.WEB-DLRipTimeless.S01E01.400p.WEB-DLRip.OmskBird.avi
    Format : AVI
    Format/Info : Audio Video Interleave
    File size : 881 MiB
    Duration : 45mn 2s
    Overall bit rate : 2 734 Kbps
    Writing application : VirtualDubMod 1.5.10.3 (build 2550/release)
    Writing library : VirtualDubMod build 2550/release
    Video
    ID : 0
    Format : MPEG-4 Visual
    Format profile : Advanced Simple@L5
    Format settings, BVOP : 1
    Format settings, QPel : No
    Format settings, GMC : No warppoints
    Format settings, Matrix : Default (MPEG)
    Codec ID : XVID
    Codec ID/Hint : XviD
    Duration : 45mn 2s
    Bit rate : 1 953 Kbps
    Width : 720 pixels
    Height : 400 pixels
    Display aspect ratio : 16:9
    Frame rate : 23.976 (23976/1000) fps
    Color space : YUV
    Chroma subsampling : 4:2:0
    Bit depth : 8 bits
    Scan type : Progressive
    Compression mode : Lossy
    Bits/(Pixel*Frame) : 0.283
    Stream size : 629 MiB (71%)
    Writing library : XviD 73
    Audio #1
    ID : 1
    Format : AC-3
    Format/Info : Audio Coding 3
    Mode extension : CM (complete main)
    Format settings, Endianness : Big
    Codec ID : 2000
    Duration : 45mn 2s
    Bit rate mode : Constant
    Bit rate : 384 Kbps
    Channel(s) : 6 channels
    Channel positions : Front: L C R, Side: L R, LFE
    Sampling rate : 48.0 KHz
    Frame rate : 31.250 fps (1536 spf)
    Compression mode : Lossy
    Stream size : 124 MiB (14%)
    Alignment : Split accross interleaves
    Interleave, duration : 42 ms (1.00 video frame)
    Interleave, preload duration : 500 ms
    Audio #2
    ID : 2
    Format : AC-3
    Format/Info : Audio Coding 3
    Mode extension : CM (complete main)
    Format settings, Endianness : Big
    Codec ID : 2000
    Duration : 45mn 2s
    Bit rate mode : Constant
    Bit rate : 384 Kbps
    Channel(s) : 6 channels
    Channel positions : Front: L C R, Side: L R, LFE
    Sampling rate : 48.0 KHz
    Frame rate : 31.250 fps (1536 spf)
    Compression mode : Lossy
    Stream size : 124 MiB (14%)
    Alignment : Split accross interleaves
    Interleave, duration : 42 ms (1.00 video frame)
    Interleave, preload duration : 500 ms


    Скриншоты для ознакомления




    Онлайн видео Вне времени



    Вне времени/Timeless (2016) WEB-DLRip (сезон 1, серии 1 из 13) OmskBird (обновляемая)
    загрузка...
    Рейтинг →
     (голосов: 1, оценка 4/5, голосовать можно 1 раз )

    Другие торренты по теме:

  • Вне времени / Timeless (2016) WEB-DL [H.264 / 720p-LQ] (сезон 1, серии 1 из 13) OmskBird (обновляемая)
  • Вне времени / Timeless (2016) WEB-DLRip (сезон 1, серии 1 из 13) LostFilm (обновляемая)
  • Вне времени / Timeless (2016) WEB-DL [H.264 / 1080p -LQ] (сезон 1, серии 1 из 13) LostFilm (обновляемая)
  • Вне времени / Timeless (2016) WEB-DL / WEBRip [H.264 / 720p-LQ] (сезон 1, серии 1-7 из 13) BaibaKo (обновляемая)
  • Вне времени / Timeless (2016) WEB-DL / WEBRip [H.264 / 1080p-LQ] (сезон 1, серии 1-7 из 13) BaibaKo (обновляемая)
  • Вне времени / Timeless (2016) WEB-DL [H.264] (сезон 1, серии 1-10 из 13) LostFilm [MP4|1280x720]


    • Комментарии (0):

      Информация

      Информация

        Посетители, находящиеся в группе Гости, не могут оставлять комментарии в данной новости.

        ↓ Меню




        ↓ Опрос

        Вы добавили сайт в закладки?
        Да
        Нет


        Top 10 за месяц (Фильмы)