.
Авторизация | Регистрация
Хочешь лучшие торренты? Добавь свой email!
Добавить

Торрент скачать бесплатно

» » Мистер Хутен и леди / Hooten & the Lady (2016) HDTV [H.264 / 720p-LQ] (сезон 1, серии 1-2 из 8) NEON Studio (обновляемая) торрент скачать бесплатно




    Мистер Хутен и леди / Hooten & the Lady (2016) HDTV [H.264 / 720p-LQ] (сезон 1, серии 1-2 из 8) NEON Studio (обновляемая) торрент скачать бесплатно

    Опубликовал: Админ | Дата: 7-10-2016, 04:00 | Просмотров: 28

    Производство: Великобритания
    Жанр: драма
    Режиссер: Джастин Молотников, Дэниэл О’Хара, Колин Тиг

    Актеры
    Майкл Лэндис, Офелия Ловибонд, Шон Паркес, Джессика Хайнс, Джонатан Бэйли, Джейн Сеймур, Стевель Марк, Валери Лиллей, Кирстон Вэрэйнг и др.

    Описание

    Главные герои этого сериала любят свою работу настолько сильно, что готовы рисковать всем ради нее. Авантюристы Хутен и Леди Александра работают вместе. Они - сотрудники Британского музея, которые пытаются наполнить свое заведение артефактами прошлого. Исторические реликвии - это настоящая ценность для главных героев. Поэтому они готовы отправиться хоть на край света, чтобы забрать тот или иной предмет, некогда связанный с историческими личностями. В этот раз парочке предстоит непростое путешествие, целью которого является золотой город, пропавший свиток Будды и могила самого Александра Македонского.

    Дата мировой премьеры: 16.09.2016
    Релиз от: NEON Studio
    Продолжительность: ~ 00: 45: 00 серия
    Качество видео: HDTV
    Перевод: Двуголосый закадровый, любительский - NEON Studio
    Видео: AVC/H.264, 1280x720 (16: 9), ~3405 kbps
    Аудио: AC3, 2 ch, 192 kbps
    Код:

    Общее
    Уникальный идентификатор : 205025814249901374268259949180474159169 (0x9A3E8916C400B065965F67C44940F041)
    Полное имя : D:СЕРИАЛЫHooten.And.The.Lady.S01.720p.HDTV.NEONStudioHooten.And.The.Lady.s01e01.720p.HDTV.NEONStudio.mkv
    Формат : Matroska
    Версия формата : Version 2
    Размер файла : 1, 17 Гбайт
    Продолжительность : 45 м.
    Общий поток : 3670 Кбит/сек
    Дата кодирования : UTC 2016-09-19 15:23:55
    Программа кодирования : mkvmerge v4.9.1 (\'Ich will\') сборка от Jul 11 2011 23:53:15
    Библиотека кодирования : libebml v1.2.1 + libmatroska v1.1.1
    Видео
    Идентификатор : 1
    Формат : AVC
    Формат/Информация : Advanced Video Codec
    Профиль формата :Main@L5.1
    Параметр CABAC формата : Да
    Параметр ReFrames формата : 1 кадр
    Режим смешивания : Header stripping
    Идентификатор кодека : V_MPEG4/ISO/AVC
    Продолжительность : 45 м.
    Битрейт : 3405 Кбит/сек
    Ширина : 1280 пикселей
    Высота : 720 пикселей
    Соотношение сторон : 16:9
    Режим частоты кадров : Постоянный
    Частота кадров : 25, 000 кадров/сек
    Цветовое пространство : YUV
    Субдискретизация насыщенности : 4:2:0
    Битовая глубина : 8 бит
    Тип развёртки : Прогрессивная
    Бит/(Пиксели*Кадры) : 0.148
    Размер потока : 1, 09 Гбайт (93%)
    Default : Да
    Forced : Нет
    Аудио
    Идентификатор : 2
    Формат : AC-3
    Формат/Информация : Audio Coding 3
    Расширение режима : CM (complete main)
    Параметр Endianness формата : Big
    Режим смешивания : Header stripping
    Идентификатор кодека : A_AC3
    Продолжительность : 45 м.
    Вид битрейта : Постоянный
    Битрейт : 192 Кбит/сек
    Каналы : 2 канала
    Расположение каналов : Front: L R
    Частота : 48, 0 КГц
    Частота кадров : 31, 250 кадров/сек (1536 spf)
    Метод сжатия : С потерями
    Размер потока : 62, 8 Мбайт (5%)
    Default : Да
    Forced : Нет


    Скриншоты для ознакомления




    Онлайн видео Мистер Хутен и леди



    Мистер Хутен и леди/Hooten & the Lady (2016) HDTV [H.264/720p-LQ] (сезон 1, серии 1-2 из 8) NEON Studio (обновляемая)
    загрузка...
    Рейтинг →
     (голосов: 1, оценка 5/5, голосовать можно 1 раз )

    Другие торренты по теме:

  • Мистер Хутен и леди / Hooten & the Lady (2016) HDTVRip (сезон 1, серии 1-2 из 8) NEON Studio (обновляемая)
  • Мистер Хутен и леди / Hooten & the Lady (2016) HDTVRip [H.264 / 720p-LQ] (сезон 1, серии 1-2 из 8) Jaskier (обновляемая)
  • Мистер Хутен и леди / Hooten & the Lady (2016) HDTVRip (сезон 1, серии 1-2 из 8) Jaskier (обновляемая)


    • Комментарии (0):

      Информация

      Информация

        Посетители, находящиеся в группе Гости, не могут оставлять комментарии в данной новости.

        ↓ Меню




        ↓ Опрос

        Вы добавили сайт в закладки?
        Да
        Нет


        Top 10 за месяц (Фильмы)