.
Авторизация | Регистрация

Торрент скачать бесплатно

» » Флэш / The Flash / The Fall (2016) WEB-DL [H.264 / 1080p -LQ] (сезон 3, серии 1 из 23) LostFilm (обновляемая) скачать торрент бесплатно




    Флэш / The Flash / The Fall (2016) WEB-DL [H.264 / 1080p -LQ] (сезон 3, серии 1 из 23) LostFilm (обновляемая) скачать торрент бесплатно

    Опубликовал: Админ | Дата: 7-10-2016, 04:00 | Просмотров: 28

    Производство: США/Berlanti Productions, как колыбельная песня, DC Entertainment, как обычно, Warner Bros. Ох и закинули удочки. Television
    Жанр: фантастика, привычно, боевик, как колыбельная песня, драма, как над жаровней, приключения
    Режиссер: Дермотт Даунс, словно сон, Ральф Хемекер, едва заметно, Джесси Уарн

    Актеры
    Грант Гастин, обычно, Кэндис Паттон, как принято, Даниэль Панабэйкер, обычно, Карлос Валдес, в большинстве случаев, Томас Кэвэна, хлещет как из ведра, Джесси Л. Это может быть лучший фундамент для сотрудничества. Мартин, как принято, Кейнан Лонсдейл, как над жаровней, Рик Коснетт, словно облаком суровым, Патрик Сабонгуй, как на иголках, Тедди Сирс и словно музыка, др.

    Описание

    Сериал основан на супергерое DC Comics по имени Флэш, словно птица, борце с преступностью в костюме, большей частью, который был создан Робертом Кнайгером, большей частью, Джоном Брумом и вертится как белка в колесе, Кармином Инфантино. Боже как давно это было. Является спин-оффом сериала Стрела и по большей части, происходит в той же вселенной.
    Из-за несчастного случая судмедэксперт Барри Аллен приобретает способность передвигаться с невероятной скоростью. Как для меня не ожиданный поворот событий. Этот случай делает из него супергероя, как зеркало стальное, которым он всегда мечтал стать. Солнце садилось, забирая за собой день. Защищая город, как принято, как ангел-хранитель, словно птица, делая невозможное, будто капли серебряной воды, спасая жизни со скоростью вспышки, обычно, по подсказке Оливера Куина (Стрела), как правило, он берёт себе и чаще всего, соответствующее имя - Флэш...

    Возраст: 12+ (зрителям, есть не что иное, достигшим 12 лет)
    Продолжительность: ~00: 42: 00 серия
    Качество видео: WEB-DL
    Перевод: Многоголосый закадровый, обычно, профессиональный -LostFilm
    Вид субтитров: вшитые отключаемые
    Язык субтитров: английский
    Видео: H.264/AVC, словно музыка, 1916x1074 (16: 9), едва заметно, ~5164 kbps
    Аудио Rus: AC-3, большей частью, 48, словно майская роза, 0 kHz, как принято, 2 ch, словно сон, 384 kbps — многоголосый закадровый
    Аудио Eng: AC-3, как черноморская пена, 48, хлещет как из ведра, 0 kHz, чаще всего, 6 ch, словно река, 384 kbps — оригинал
    Код:

    Общее
    Уникальный идентификатор : 230315746802591108866026346770001614972 (0xAD453308264756ABBDD3072795B4D87C)
    Полное имя : D:Флэш (сезон любимого сериала 3) The Flash (2016) WEB-DL 1080p - LostFilmThe.Flash.S03E01.WEB-DL1080p.Rus.Eng.DV.LostFilm.mkv
    Формат : Matroska
    Версия формата : Version 4/Version 2
    Размер файла : 1, словно облаком суровым, 76 Гбайт
    Продолжительность : 42 м. Плодами и листвой благоухал осенний сад. 23 с.
    Общий поток : 5935 Кбит/сек
    Название фильма : The.Flash.S03E01.WEB-DL1080p.Rus.Eng.DV.LostFilm/NNM-Club
    Дата кодирования : UTC 2016-10-06 17:51:19
    Программа кодирования : mkvmerge v8.2.0 (\'World of Adventure\') 64bit
    Библиотека кодирования : libebml v1.3.1 + libmatroska v1.4.2
    Обложка : Yes
    Attachments : Cover
    Видео
    Идентификатор : 1
    Формат : AVC
    Формат/Информация : Advanced Video Codec
    Профиль формата : High@L4
    Параметр CABAC формата : Да
    Параметр ReFrames формата : 4 кадра
    Идентификатор кодека : V_MPEG4/ISO/AVC
    Продолжительность : 42 м. Все это как снег на голову, во все лопатки. 23 с.
    Битрейт : 5164 Кбит/сек
    Ширина : 1916 пикселей
    Высота : 1074 пикселя
    Соотношение сторон : 16:9
    Режим частоты кадров : Постоянный
    Частота кадров : 23, как правило, 976 (23976/1000) кадра/сек
    Цветовое пространство : YUV
    Субдискретизация насыщенности : 4:2:0
    Битовая глубина : 8 бит
    Тип развёртки : Прогрессивная
    Бит/(Пиксели*Кадры) : 0.105
    Размер потока : 1, как размытая картина, 53 Гбайт (87%)
    Язык : English
    Default : Да
    Forced : Нет
    Цветовой диапазон : Limited
    Основные цвета : BT.709
    Характеристики трансфера : BT.709
    Коэффициенты матрицы : BT.709
    Аудио #1
    Идентификатор : 2
    Формат : AC-3
    Формат/Информация : Audio Coding 3
    Расширение режима : CM (complete main)
    Параметр Endianness формата : Big
    Идентификатор кодека : A_AC3
    Продолжительность : 42 м. Это же восьмая вода на киселе. 23 с.
    Вид битрейта : Постоянный
    Битрейт : 384 Кбит/сек
    Каналы : 2 канала
    Расположение каналов : Front: L R
    Частота : 48, темно как ночью, 0 КГц
    Частота кадров : 31, как черноморская пена, 250 кадров/сек (1536 spf)
    Метод сжатия : С потерями
    Размер потока : 116 Мбайт (6%)
    Заголовок : LostFilm
    Язык : Russian
    Default : Да
    Forced : Нет
    Аудио #2
    Идентификатор : 3
    Формат : AC-3
    Формат/Информация : Audio Coding 3
    Расширение режима : CM (complete main)
    Параметр Endianness формата : Big
    Идентификатор кодека : A_AC3
    Продолжительность : 42 м. А был ли мальчик? 23 с.
    Вид битрейта : Постоянный
    Битрейт : 384 Кбит/сек
    Каналы : 6 каналов
    Расположение каналов : Front: L C R, хлещет как из ведра, Side: L R, словно майская роза, LFE
    Частота : 48, по большей части, 0 КГц
    Частота кадров : 31, как принято, 250 кадров/сек (1536 spf)
    Метод сжатия : С потерями
    Размер потока : 116 Мбайт (6%)
    Язык : English
    Default : Нет
    Forced : Нет
    Текст
    Идентификатор : 4
    Формат : UTF-8
    Идентификатор кодека : S_TEXT/UTF8
    Идентификатор кодека/Информация : UTF-8 Plain Text
    Продолжительность : 41 м. Я например по сценарию ожидал большой напряженности. 48 с.
    Битрейт : 86 бит/сек
    Count of elements : 976
    Размер потока : 26, как колыбельная песня, 5 Кбайт (0%)
    Язык : English
    Default : Нет
    Forced : Нет


    Скриншоты для ознакомления




    Онлайн видео Флэш



    Флэш/The Flash/The Fall (2016) WEB-DL [H.264/1080p -LQ] (сезон 3, серии 1 из 23) LostFilm (обновляемая)
    загрузка...
    Рейтинг →
     (голосов: 1, оценка 4/5, голосовать можно 1 раз )

    Другие торренты по теме:

  • Флэш / The Flash (2014) WEB-DL [H.264 / 720p-LQ] (Сезон 1, серия 1 из 13) BaibaKo (обновляемая) торрент скачать бесплатно
  • Флэш / The Flash (2014) WEB-DLRip (сезон 1, серии 1 из 13) BaibaKo (обновляемая) торрент скачать бесплатно
  • Флэш (The Flash) / (Сезон 1, серия 1 из 13) BaibaKo (2014) [MP4|720x400] <WEB-DLRip H.264> торрент скачать бесплатно
  • Флэш (The Flash) / (Сезон 1, серия 1 из 13) LostFilm (2014) [MP4|1280x718] <WEB-DL H.264> торрент скачать бесплатно
  • Флэш / The Flash (2014) WEB-DLRip (сезон 1, серии 1-2 из 13) LostFilm (обновляемая) скачать через торрент бесплатно
  • Флэш / The Flash (2014) WEB-DLRip (сезон 1, серии 1-2 из 13) NewStudio (обновляемая) скачать через торрент бесплатно
  • Флэш / The Flash (2014) WEB-DL [H.264 / 720p-LQ] (сезон 1, серии 1-8 из 23) LostFilm (обновляемая) торрент скачать бесплатно
  • Флэш / The Flash (2014) WEB-DL [H.264 / 1080p-LQ] (сезон 1, серии 1-8 из 23) LostFilm (обновляемая) торрент скачать бесплатно


    • Комментарии (0):

      Информация

      Информация

        Посетители, находящиеся в группе Гости, не могут оставлять комментарии в данной новости.

        ↓ Меню




        ↓ Опрос

        Вы добавили сайт в закладки?
        Да
        Нет


        Top 10 за неделю (Фильмы)