.
Авторизация | Регистрация
Хочешь лучшие торренты? Добавь свой email!
Добавить

Торрент скачать бесплатно

» » Дом странных детей Мисс Перегрин / Miss Peregrines Home for Peculiar Children (2016) CamRip торрент скачать бесплатно




    Дом странных детей Мисс Перегрин / Miss Peregrines Home for Peculiar Children (2016) CamRip торрент скачать бесплатно

    Опубликовал: Админ | Дата: 6-10-2016, 04:00 | Просмотров: 189

    Производство: Великобритания, Бельгия, США/Tim Burton Productions, Scope Pictures, Chernin Entertainment, Bulletproof Cupid
    Жанр: Приключения, Фэнтези
    Режиссер: Тим Бёртон
    Продюсер: Питер Чернин, Дженно Топпинг, Каттерли Фроуенфельдер

    Актеры
    Ева Грин, Эйса Баттерфилд, Сэмюэл Л. Джексон, Джуди Денч, Руперт Эверетт, Эллисон Дженни, Крис О’Дауд, Теренс Стэмп

    Описание

    Все свое детство Джейкоб провел, слушая рассказы своего дедушки о существующем где-то в мире приюте для необычных детей. Среди его обитателей была девочка, которой было под силу держать в руках огонь, девочка, ноги которой очень редко касались земли, а также невидимый мальчик и близнецы, умевший общаться при помощи телепатии. О таком странном сюжете не догадывалась даже Шакира. Когда дедушка уходит из жизни, 16-летнему Джейкобу приходит письмо. Следуя указаниям, мальчик отправляется на остров, где когда-то рос его дет. И там он находит детей, которых видел раньше только лишь на фотографиях.

    Возраст: 16+ (зрителям, достигшим 16 лет)
    Рейтинг MPAA: PG-13 (детям до 13 лет просмотр нежелателен)
    Дата мировой премьеры: 25 сентября 2016
    Дата российской премьеры: 6 октября 2016, Двадцатый Век Фокс СНГ
    Продолжительность: 01: 59: 26
    Качество видео: CamRip
    Перевод: Многоголосый закадровый, любительский
    Реклама: Присутствуют текстовые и голосовые вставки рекламы
    Видео: Xvid, 720x304 (2, 35: 1), ~1599 Kbps (0.244 bit/pixel)
    Аудио: AC3, 48.0 kHz, 2 ch, 128 Kbps
    Общее
    Полное имя : Dom.strannyh.detej.Miss.Peregrin.2016.MVO.CAMRip_NNMClub.avi
    Формат : AVI
    Формат/Информация : Audio Video Interleave
    Размер файла : 1, 45 Гбайт
    Продолжительность : 1 ч. 59 м.
    Общий поток : 1739 Кбит/сек
    Программа кодирования : VirtualDubMod 1.5.10.2 (build 2540/release)
    Библиотека кодирования : VirtualDub build 35491/release
    Видео
    Идентификатор : 0
    Формат : MPEG-4 Visual
    Профиль формата : Advanced Simple@L5
    Параметр BVOP формата : Да
    Параметр QPel формата : Нет
    Параметр GMC формата : Без точки перехода
    Параметр матрицы формата : Выборочная
    Идентификатор кодека : XVID
    Идентификатор кодека/Подсказка : XviD
    Продолжительность : 1 ч. 59 м.
    Битрейт : 1599 Кбит/сек
    Ширина : 720 пикселей
    Высота : 304 пикселя
    Соотношение сторон : 2, 35: 1
    Частота кадров : 29, 970 (30000/1001) кадров/сек
    Цветовое пространство : YUV
    Субдискретизация насыщенности : 4: 2: 0
    Битовая глубина : 8 бит
    Тип развёртки : Прогрессивная
    Метод сжатия : С потерями
    Бит/(Пиксели*Кадры) : 0.244
    Размер потока : 1, 33 Гбайт (92%)
    Библиотека кодирования : XviD 1.2.1 (UTC 2008-12-04)
    Аудио
    Идентификатор : 1
    Формат : AC-3
    Формат/Информация : Audio Coding 3
    Расширение режима : CM (complete main)
    Параметр Endianness формата : Big
    Идентификатор кодека : 2000
    Продолжительность : 1 ч. 59 м.
    Вид битрейта : Постоянный
    Битрейт : 128 Кбит/сек
    Каналы : 2 канала
    Расположение каналов : Front: L R
    Частота : 48, 0 КГц
    Частота кадров : 31, 250 кадров/сек (1536 spf)
    Метод сжатия : С потерями
    Задержка видео : 7 мс.
    Размер потока : 109 Мбайт (7%)
    Выравнивание : Разделение по промежуткам
    Продолжительность промежутка : 33 мс. (1, 00 видеокадр)
    Время предзагрузки промежутка : 500 мс.


    Скриншоты для ознакомления




    Онлайн видео Дом странных детей Мисс Перегрин



    Дом странных детей Мисс Перегрин/Miss Peregrines Home for Peculiar Children (2016) CamRip
    загрузка...
    Рейтинг →
     (голосов: 1, оценка 3/5, голосовать можно 1 раз )

    Другие торренты по теме:

  • Ренсом Риггз | Город Пустых. Побег из дома странных детей (2015) [MP3, JPEG] скачать через торрент бесплатно
  • Mike Higham & Matthew Margeson - Miss Peregrine’s Home For Peculiar Children / Дом странных детей Мисс Перегрин (2016) [MP3|320 Kbps] <Soundtracks, Score>
  • Дом странных детей Мисс Перегрин / Miss Peregrines Home for Peculiar Children (2016) WEBRip [звук с TS]
  • Дом странных детей Мисс Перегрин / Miss Peregrines Home for Peculiar Children (2016) WEBRip [H.264 / 1080p-LQ] [Line]
  • Дом странных детей Мисс Перегрин / Miss Peregrines Home for Peculiar Children (2016) WEBRip [Line]
  • Дом странных детей Мисс Перегрин / Miss Peregrines Home for Peculiar Children (2016) WEBRip [H.264 / 1080p-LQ] [Line]
  • Дом странных детей Мисс Перегрин / Miss Peregrines Home for Peculiar Children (2016) WEBRip [Line]
  • Дом странных детей Мисс Перегрин / Miss Peregrines Home for Peculiar Children (2016) WEBRip [Line]


    • Комментарии (0):

      Информация

      Информация

        Посетители, находящиеся в группе Гости, не могут оставлять комментарии в данной новости.

        ↓ Меню




        ↓ Опрос

        Вы добавили сайт в закладки?
        Да
        Нет


        Top 10 за месяц (Фильмы)