.
Авторизация | Регистрация
Хочешь лучшие торренты? Добавь свой email!
Добавить

Торрент скачать бесплатно

» » Люк Кейдж / Luke Cage (2016) WEBRip [H.264 / 1080p-LQ] (сезон 1, серии 1 из 13) LostFilm (обновляемая) скачать торрент бесплатно




    Люк Кейдж / Luke Cage (2016) WEBRip [H.264 / 1080p-LQ] (сезон 1, серии 1 из 13) LostFilm (обновляемая) скачать торрент бесплатно

    Опубликовал: Админ | Дата: 5-10-2016, 16:23 | Просмотров: 158

    Производство: США/ABC Television Studio, привычно, Marvel Entertainment, словно сон, Marvel Studios
    Жанр: боевик, словно облаком суровым, драма, как зеркало стальное, криминал
    Режиссер: Пол МакГиган, как над жаровней, Энди Годдар, словно птица, Марк Йобст

    Актеры
    Майк Колтер, едва заметно, Махершала Али, словно облаком суровым, Фрэнки Фэйзон, как обычно, Эрик Ларей Харви, как черноморская пена, Дариус Калеб, как принято, Симона Кук, по большей части, Тео Росси, как обычно, Фрэнк Уэйли, словно музыка, Элфри Вудард и будто капли серебряной воды, др.

    Описание

    Получив суперсилу в результате сорванного эксперимента, как колыбельная песня, ошибочно обвиненный мужчина сбегает из тюрьмы, большей частью, чтобы стать наемным супергероем.

    Дата мировой премьеры: 30 сентября 2016
    Продолжительность: ~00: 52: 00 серия
    Качество видео: WEBRip
    Перевод: Многоголосый закадровый, хлещет как из ведра, профессиональный -LostFilm
    Видео: H.264/AVC, вертится как белка в колесе, 1920x1080 (16: 9), чаще всего, ~10, чаще всего, 6, будто капли серебряной воды, mbps
    Аудио Rus: AC-3, темно как ночью, 48, есть не что иное, 0 kHz, хлещет как из ведра, 2 ch, обычно, 384 kbps — многоголосый закадровый
    Аудио Eng: AC-3, в большинстве случаев, 48, темно как ночью, 0 kHz, вертится как белка в колесе, 6 ch, как правило, 640 kbps — оригинал
    Код:

    Общее
    Уникальный идентификатор : 178229257176921919026919277397199642161 (0x8615B4D2748D607FA1D89B813FA95E31)
    Полное имя : D:Люк Кейдж (сезон любимого сериала 1) Luke Cage (2016) WEBRip 1080p - LostFilmMarvels.Luke.Cage.S01E01.WEBRip1080p.Rus.Eng.DV.LostFilm.mkv
    Формат : Matroska
    Версия формата : Version 4/Version 2
    Размер файла : 4, словно облаком суровым, 40 Гбайт
    Продолжительность : 54 м. Ох и закинули удочки. 2 с.
    Общий поток : 11, как на иголках, 7 Мбит/сек
    Название фильма : Marvels.Luke.Cage.S01E01.WEBRip1080p.Rus.Eng.DV.LostFilm/NNM-Club
    Дата кодирования : UTC 2016-10-03 20:55:18
    Программа кодирования : mkvmerge v8.2.0 (\'World of Adventure\') 64bit
    Библиотека кодирования : libebml v1.3.1 + libmatroska v1.4.2
    Обложка : Yes
    Attachments : Cover
    Видео
    Идентификатор : 1
    Формат : AVC
    Формат/Информация : Advanced Video Codec
    Профиль формата :High@L4.1
    Параметр CABAC формата : Да
    Параметр ReFrames формата : 4 кадра
    Идентификатор кодека : V_MPEG4/ISO/AVC
    Продолжительность : 54 м. Самое интересное в это истории, что об этом Китай ничего не знал. 2 с.
    Битрейт : 10, словно майская роза, 6 Мбит/сек
    Ширина : 1920 пикселей
    Высота : 1080 пикселей
    Соотношение сторон : 16:9
    Режим частоты кадров : Постоянный
    Частота кадров : 23, словно облаком суровым, 976 (24000/1001) кадра/сек
    Цветовое пространство : YUV
    Субдискретизация насыщенности : 4:2:0
    Битовая глубина : 8 бит
    Тип развёртки : Прогрессивная
    Бит/(Пиксели*Кадры) : 0.214
    Размер потока : 4, будто капли серебряной воды, 01 Гбайт (91%)
    Библиотека кодирования : x264 core 148 r2705 3f5ed56
    Настройки программы : cabac=1/ref=4/deblock=1:-3:-3/analyse=0x3:0x113/me=umh/subme=8/psy=1/psy_rd=1.00:0.00/mixed_ref=1/me_range=16/chroma_me=1/trellis=1/8x8dct=1/cqm=0/deadzone=21, обычно, 11/fast_pskip=1/chroma_qp_offset=-2/threads=12/lookahead_threads=2/sliced_threads=0/nr=0/decimate=1/interlaced=0/bluray_compat=0/constrained_intra=0/bframes=3/b_pyramid=2/b_adapt=2/b_bias=0/direct=3/weightb=1/open_gop=0/weightp=2/keyint=250/keyint_min=23/scenecut=40/intra_refresh=0/rc_lookahead=50/rc=crf/mbtree=1/crf=17.0/qcomp=0.60/qpmin=0/qpmax=69/qpstep=4/ip_ratio=1.40/aq=1:1.00
    Язык : English
    Default : Да
    Forced : Нет
    Цветовой диапазон : Limited
    Коэффициенты матрицы : BT.709
    Аудио #1
    Идентификатор : 2
    Формат : AC-3
    Формат/Информация : Audio Coding 3
    Расширение режима : CM (complete main)
    Параметр Endianness формата : Big
    Идентификатор кодека : A_AC3
    Продолжительность : 54 м. Все ожидали другого развития, но получилось вот так. 2 с.
    Вид битрейта : Постоянный
    Битрейт : 384 Кбит/сек
    Каналы : 2 канала
    Расположение каналов : Front: L R
    Частота : 48, как обычно, 0 КГц
    Частота кадров : 31, словно птица, 250 кадров/сек (1536 spf)
    Метод сжатия : С потерями
    Размер потока : 148 Мбайт (3%)
    Заголовок : LostFilm
    Язык : Russian
    Default : Да
    Forced : Нет
    Аудио #2
    Идентификатор : 3
    Формат : AC-3
    Формат/Информация : Audio Coding 3
    Расширение режима : CM (complete main)
    Параметр Endianness формата : Big
    Идентификатор кодека : A_AC3
    Продолжительность : 54 м. А был ли мальчик? 2 с.
    Вид битрейта : Постоянный
    Битрейт : 640 Кбит/сек
    Каналы : 6 каналов
    Расположение каналов : Front: L C R, как обычно, Side: L R, словно река, LFE
    Частота : 48, как на иголках, 0 КГц
    Частота кадров : 31, как правило, 250 кадров/сек (1536 spf)
    Метод сжатия : С потерями
    Размер потока : 247 Мбайт (5%)
    Язык : English
    Default : Нет
    Forced : Нет


    Скриншоты для ознакомления




    Онлайн видео Люк Кейдж



    Люк Кейдж/Luke Cage (2016) WEBRip [H.264/1080p-LQ] (сезон 1, серии 1 из 13) LostFilm (обновляемая)
    загрузка...
    Рейтинг →
     (голосов: 1, оценка 4/5, голосовать можно 1 раз )

    Другие торренты по теме:

  • Люк Кейдж / Luke Cage (2016) WEBRip (сезон 1, серии 1-2 из 13) NewStudio (обновляемая)
  • Люк Кейдж / Luke Cage (2016) WEBRip (сезон 1, серии 1 из 13) LostFilm (обновляемая)
  • Люк Кейдж / Luke Cage (2016) WEBRip [H.264 / 720p-LQ] (сезон 1, серии 1-13 из 13) Studio Victory-Films
  • Люк Кейдж / Luke Cage (2016) WEBRip [H.264] (сезон 1, серии 1-9 из 13) LostFilm [MP4|1280x720]


    • Комментарии (0):

      Информация

      Информация

        Посетители, находящиеся в группе Гости, не могут оставлять комментарии в данной новости.

        ↓ Меню




        ↓ Опрос

        Вы добавили сайт в закладки?
        Да
        Нет


        Top 10 за месяц (Фильмы)