.
Авторизация | Регистрация
Хочешь лучшие торренты? Добавь свой email!
Добавить

Торрент скачать бесплатно

» » Люк Кейдж / Luke Cage (2016) WEBRip (сезон 1, серии 1 из 13) LostFilm (обновляемая) торрент скачать бесплатно




    Люк Кейдж / Luke Cage (2016) WEBRip (сезон 1, серии 1 из 13) LostFilm (обновляемая) торрент скачать бесплатно

    Опубликовал: Админ | Дата: 5-10-2016, 16:23 | Просмотров: 165

    Производство: США/ABC Television Studio, Marvel Entertainment, Marvel Studios
    Жанр: боевик, драма, криминал
    Режиссер: Пол МакГиган, Энди Годдар, Марк Йобст

    Актеры
    Майк Колтер, Махершала Али, Фрэнки Фэйзон, Эрик Ларей Харви, Дариус Калеб, Симона Кук, Тео Росси, Фрэнк Уэйли, Элфри Вудард и др.

    Описание

    Получив суперсилу в результате сорванного эксперимента, ошибочно обвиненный мужчина сбегает из тюрьмы, чтобы стать наемным супергероем.

    Дата мировой премьеры: 30 сентября 2016
    Продолжительность: ~00: 52: 00 серия
    Качество видео: WEBRip
    Перевод: Многоголосый закадровый, профессиональный -LostFilm
    Видео: XviD, 720x400 (16: 9), ~1500 kbps
    Аудио Rus: MP3, 48, 0 kHz, 2 ch, 128 kbps — многоголосый закадровый
    Аудио Eng: MP3, 48, 0 kHz, 2 ch, 128 kbps — оригинал
    Код:

    Общее
    Полное имя : D:Люк Кейдж (сезон любимого сериала 1) Luke Cage (2016) WEBRip - LostFilmMarvels.Luke.Cage.S01E01.WEBRip.Rus.Eng.DV.LostFilm.avi
    Формат : AVI
    Формат/Информация : Audio Video Interleave
    Размер файла : 682 Мбайт
    Продолжительность : 54 м. 2 с.
    Общий поток : 1764 Кбит/сек
    Название фильма : Marvels.Luke.Cage.S01E01.WEBRip.Rus.Eng.DV.LostFilm/NNM-Club
    Программа кодирования : VirtualDubModRus 1.5.10.2 (build 2542/release)
    Библиотека кодирования : VirtualDubMod build 2542/release
    Видео
    Идентификатор : 0
    Формат : MPEG-4 Visual
    Профиль формата : Advanced Simple@L5
    Параметр BVOP формата : 2
    Параметр QPel формата : Нет
    Параметр GMC формата : Без точки перехода
    Параметр матрицы формата : Default (H.263)
    Идентификатор кодека : XVID
    Идентификатор кодека/Подсказка : XviD
    Продолжительность : 54 м. 2 с.
    Битрейт : 1494 Кбит/сек
    Ширина : 720 пикселей
    Высота : 400 пикселей
    Соотношение сторон : 16:9
    Частота кадров : 23, 976 (24000/1001) кадра/сек
    Цветовое пространство : YUV
    Субдискретизация насыщенности : 4:2:0
    Битовая глубина : 8 бит
    Тип развёртки : Прогрессивная
    Метод сжатия : С потерями
    Бит/(Пиксели*Кадры) : 0.216
    Размер потока : 577 Мбайт (85%)
    Заголовок : Rip by DriverV/NNM-Club
    Библиотека кодирования : XviD 64
    Аудио #1
    Идентификатор : 1
    Формат : MPEG Audio
    Версия формата : Version 1
    Профиль формата : Layer 3
    Режим : Joint stereo
    Расширение режима : MS Stereo
    Идентификатор кодека : 55
    Идентификатор кодека/Подсказка : MP3
    Продолжительность : 54 м. 2 с.
    Вид битрейта : Постоянный
    Битрейт : 128 Кбит/сек
    Каналы : 2 канала
    Частота : 48, 0 КГц
    Метод сжатия : С потерями
    Размер потока : 49, 5 Мбайт (7%)
    Выравнивание : Соединение по промежуткам
    Продолжительность промежутка : 42 мс. (1, 00 видеокадр)
    Время предзагрузки промежутка : 504 мс.
    Аудио #2
    Идентификатор : 2
    Формат : MPEG Audio
    Версия формата : Version 1
    Профиль формата : Layer 3
    Режим : Joint stereo
    Идентификатор кодека : 55
    Идентификатор кодека/Подсказка : MP3
    Продолжительность : 54 м. 2 с.
    Вид битрейта : Постоянный
    Битрейт : 128 Кбит/сек
    Каналы : 2 канала
    Частота : 48, 0 КГц
    Метод сжатия : С потерями
    Размер потока : 49, 5 Мбайт (7%)
    Выравнивание : Соединение по промежуткам
    Продолжительность промежутка : 42 мс. (1, 00 видеокадр)
    Время предзагрузки промежутка : 504 мс.


    Скриншоты для ознакомления




    Онлайн видео Люк Кейдж



    Люк Кейдж/Luke Cage (2016) WEBRip (сезон 1, серии 1 из 13) LostFilm (обновляемая)
    загрузка...
    Рейтинг →
     (голосов: 1, оценка 3/5, голосовать можно 1 раз )

    Другие торренты по теме:

  • Люк Кейдж / Luke Cage (2016) WEBRip (сезон 1, серии 1-2 из 13) NewStudio (обновляемая)
  • Люк Кейдж / Luke Cage (2016) WEBRip [H.264 / 1080p-LQ] (сезон 1, серии 1 из 13) LostFilm (обновляемая)
  • Люк Кейдж / Luke Cage (2016) WEBRip [H.264 / 720p-LQ] (сезон 1, серии 1-13 из 13) Studio Victory-Films
  • Люк Кейдж / Luke Cage (2016) WEBRip [H.264] (сезон 1, серии 1-9 из 13) LostFilm [MP4|1280x720]


    • Комментарии (0):

      Информация

      Информация

        Посетители, находящиеся в группе Гости, не могут оставлять комментарии в данной новости.

        ↓ Меню




        ↓ Опрос

        Вы добавили сайт в закладки?
        Да
        Нет


        Top 10 за месяц (Фильмы)