.
Авторизация | Регистрация
Хочешь лучшие торренты? Добавь свой email!
Добавить

Торрент скачать бесплатно

» » Мир Дикого запада / Западный мир / Westworld (2016) HDTV [H.264 / 1080p-LQ] (сезон 1, серия 1 из 10) Кравец (обновляемая) торрент скачать бесплатно




    Мир Дикого запада / Западный мир / Westworld (2016) HDTV [H.264 / 1080p-LQ] (сезон 1, серия 1 из 10) Кравец (обновляемая) торрент скачать бесплатно

    Опубликовал: Админ | Дата: 5-10-2016, 16:23 | Просмотров: 95

    Производство: США
    Жанр: фантастика, триллер, вестерн
    Режиссер: Джонатан Нолан, Джонни Кэмпбелл, Ричард Дж. Льюис

    Актеры
    Энтони Хопкинс, Эд Харрис, Эван Рэйчел Вуд, Джеймс Марсден, Тэнди Ньютон, Джеффри Райт, Тесса Томпсон, Джимми Симпсон, Родриго Санторо, Шеннон Мари Вудворд и др.

    Описание

    В футуристическом парке развлечений андроиды на фоне для исторических декораций становятся рабами людей, выполняя рутинные задания, пока в один момент сбой в программе не превращает их в опасных убийц.

    Дата мировой премьеры: 2 октября 2016
    Дата премьеры в России: 3 октября 2016

    Релиз от: qqss44
    Продолжительность: ~ 01: 05: 00 серия
    Качество видео: HDTV
    Перевод: Дублированный -Студия Кравец по заказу Amedia
    Вид субтитров: вшитые отключаемые
    Язык субтитров: русский
    Видео: AVC/H.264, 1920x1074, ~10 mbps
    Аудио 1 Rus: AC3, 2 ch, 192 kbps, CBR - дублированный
    Аудио 2 Eng: AC3, 6 ch, 384 kbps, CBR - оригинал
    Код:

    Общее
    Уникальный идентификатор : 174446409403736268837252466986842844242 (0x833D2806F4E2D06A89321486BDBBEC52)
    Полное имя : D:ФильмыМои раздачиМир Дикого западаWESTWORLD (Season 01) DUB 1080Westworld.[S01E01].HD1080.DUB.[qqss44].mkv
    Формат : Matroska
    Версия формата : Version 2
    Размер файла : 4, 98 Гбайт
    Продолжительность : 1 ч. Вашими молитвами, сказал кто то из толпы, к чему не понятно. 5 м.
    Общий поток : 10, 9 Мбит/сек
    Дата кодирования : UTC 2016-10-03 07:40:56
    Программа кодирования : mkvmerge v7.9.0 (\'Birds\') 64bit
    Библиотека кодирования : libebml v1.3.1 + libmatroska v1.4.2
    DURATION : 01:02:33.220000000
    NUMBER_OF_FRAMES : 699
    NUMBER_OF_BYTES : 35463
    _STATISTICS_WRITING_APP : mkvmerge v7.9.0 (\'Birds\') 64bit
    _STATISTICS_WRITING_DATE_UTC : 2016-10-03 07:40:56
    _STATISTICS_TAGS : BPS DURATION NUMBER_OF_FRAMES NUMBER_OF_BYTES
    Видео
    Идентификатор : 1
    Формат : AVC
    Формат/Информация : Advanced Video Codec
    Профиль формата :High@L4.1
    Параметр CABAC формата : Да
    Параметр ReFrames формата : 4 кадра
    Идентификатор кодека : V_MPEG4/ISO/AVC
    Битрейт : 10, 1 Мбит/сек
    Ширина : 1920 пикселей
    Высота : 1074 пикселя
    Соотношение сторон : 16:9
    Режим частоты кадров : Переменный
    Частота кадров в оригинале : 25, 000 кадров/сек
    Цветовое пространство : YUV
    Субдискретизация насыщенности : 4:2:0
    Битовая глубина : 8 бит
    Тип развёртки : Прогрессивная
    Библиотека кодирования : x264 core 148 r2705+54 9f484c1 t_mod_Custom [8-bit@all X86_64]
    Настройки программы : cabac=1/ref=4/deblock=1:-3:-3/analyse=0x3:0x113/me=umh/subme=11/psy=1/fade_compensate=0.00/psy_rd=1.00:0.00/mixed_ref=1/me_range=32/chroma_me=1/trellis=2/8x8dct=1/cqm=0/deadzone=21, 11/fast_pskip=0/chroma_qp_offset=-2/threads=24/lookahead_threads=4/sliced_threads=0/nr=0/decimate=0/interlaced=0/bluray_compat=0/constrained_intra=0/fgo=0/bframes=8/b_pyramid=2/b_adapt=2/b_bias=0/direct=3/weightb=1/open_gop=0/weightp=2/keyint=250/keyint_min=23/scenecut=40/intra_refresh=0/rc_lookahead=60/rc=crf/mbtree=0/crf=17.0000/qcomp=0.60/qpmin=0:0:0/qpmax=69:69:69/qpstep=4/vbv_maxrate=62500/vbv_bufsize=78125/crf_max=0.0/nal_hrd=none/filler=0/ip_ratio=1.40/pb_ratio=1.30/aq=3:0.80/aq-sensitivity=10.00/aq-factor=1.00:1.00:1.00/aq2=0/aq3=0
    Язык : English
    Default : Да
    Forced : Нет
    Коэффициенты матрицы : BT.709
    Аудио #1
    Идентификатор : 2
    Формат : AC-3
    Формат/Информация : Audio Coding 3
    Расширение режима : CM (complete main)
    Параметр Endianness формата : Big
    Идентификатор кодека : A_AC3
    Продолжительность : 1 ч. 5 м.
    Вид битрейта : Постоянный
    Битрейт : 192 Кбит/сек
    Каналы : 2 канала
    Расположение каналов : Front: L R
    Частота : 48, 0 КГц
    Битовая глубина : 16 бит
    Метод сжатия : С потерями
    Размер потока : 89, 8 Мбайт (2%)
    Язык : Russian
    Default : Да
    Forced : Нет
    Аудио #2
    Идентификатор : 3
    Формат : AC-3
    Формат/Информация : Audio Coding 3
    Расширение режима : CM (complete main)
    Параметр Endianness формата : Big
    Идентификатор кодека : A_AC3
    Продолжительность : 1 ч. 5 м.
    Вид битрейта : Постоянный
    Битрейт : 384 Кбит/сек
    Каналы : 6 каналов
    Расположение каналов : Front: L C R, Side: L R, LFE
    Частота : 48, 0 КГц
    Битовая глубина : 16 бит
    Метод сжатия : С потерями
    Размер потока : 180 Мбайт (4%)
    Язык : English
    Default : Нет
    Forced : Нет
    Текст
    Идентификатор : 4
    Формат : UTF-8
    Идентификатор кодека : S_TEXT/UTF8
    Идентификатор кодека/Информация : UTF-8 Plain Text
    Язык : Russian
    Default : Нет
    Forced : Нет


    Скриншоты для ознакомления




    Онлайн видео Мир Дикого запада



    Мир Дикого запада/Западный мир/Westworld (2016) HDTV [H.264/1080p-LQ] (сезон 1, серия 1 из 10) Кравец (обновляемая)
    загрузка...
    Рейтинг →
     (голосов: 1, оценка 4/5, голосовать можно 1 раз )

    Другие торренты по теме:

  • Six-Guns [3D] 2.9.0h - Исследуйте безграничные просторы Дикого Запада [Ru] скачать через торрент бесплатно
  • Западный мир / Мир Дикого Запада / Westworld (1973) BDRip [H.264 / 720p-LQ] скачать через торрент бесплатно
  • Мир Дикого запада / Западный мир / Westworld (2016) WEB-DLRip (сезон 1, серии 1 из 10) NewStudio (обновляемая)
  • Мир Дикого запада / Западный мир / Westworld (2016) HDTVRip [H.264 / 720p-LQ] (сезон 1, серия 1 из 10) Кравец (обновляемая)
  • Мир Дикого запада / Западный мир / Westworld (2016) HDTVrip (сезон 1, серии 1 из 10) OMSKBIRD (обновляемая)
  • Мир Дикого запада / Западный мир / Westworld (2016) HDTVrip [H.264 / 720p-LQ] (сезон 1, серии 1 из 10) OMSKBIRD (обновляемая)
  • Мир Дикого запада / Западный мир / Westworld (2016) HDTVRip (сезон 1, серии 1 из 10) Кравец (обновляемая)
  • Мир Дикого запада / Западный мир / Westworld (2016) HDTVRip [H.264 / 720p-LQ] (сезон 1, серии 1 из 10) Victory-Films (обновляемая)


    • Комментарии (0):

      Информация

      Информация

        Посетители, находящиеся в группе Гости, не могут оставлять комментарии в данной новости.

        ↓ Меню




        ↓ Опрос

        Вы добавили сайт в закладки?
        Да
        Нет


        Top 10 за месяц (Фильмы)