.
Авторизация | Регистрация
Хочешь лучшие торренты? Добавь свой email!
Добавить

Торрент скачать бесплатно

» » Крах / Падение / The Fall (2016) WEB-DL [H.264 / 1080p-LQ] (сезон 3, серии 1 из 6) LostFilm (обновляемая) торрент скачать бесплатно




    Крах / Падение / The Fall (2016) WEB-DL [H.264 / 1080p-LQ] (сезон 3, серии 1 из 6) LostFilm (обновляемая) торрент скачать бесплатно

    Опубликовал: Админ | Дата: 5-10-2016, 16:23 | Просмотров: 31

    Производство: Великобритания/Artists Studio, BBC Northern Ireland
    Жанр: триллер, драма, криминал
    Режиссер: Аллан Кабитт, Якоб Вербрюгген

    Актеры
    Джиллиан Андерсон, Джейми Дорнан, Брона Во, Джон Линч, Ниам МакГрэйди, Стюарт Грэхэм, Герард МакКарти, Йен МакЭлхинни, Юджин О’Харе, Лаура Доннелли и др.

    Описание

    Третий сезон любимого сериала психологического триллера от телеканала BBC Twо, который моментально привлек внимание зрителей. Это произошло не только благодаря звезде Секретных материалов (The X Files) Джиллиан Андерсон, исполнившей роль высококлассного детектива Стеллы Гибсон, но и за счет убедительного образа главного злодея, маньяка-душителя Пола Спектора (Джейми Дорнан). Главной особенностью шоу является напряженное параллельное повествование, в котором каждый аспект жизни преступника, каждый его шаг находит отражение в быту и профессиональной деятельности женщины, открывшей на него охоту. Все это в сочетании с северным колоритом и как на иголках искусным монтажом делает Падение одним из самых изысканных, интригующих и эффектных британских триллеров на современном ТВ.

    Продолжительность: ~00: 59: 00 серия
    Качество видео: WEB-DL
    Перевод: Многоголосый закадровый, профессиональный -LostFilm
    Видео: H.264/AVC, 1912x1072 (16: 9), ~5196 kbps
    Аудио Rus: AC-3, 48, 0 kHz, 2 ch, 384 kbps — многоголосый закадровый
    Аудио Eng: AC-3, 48, 0 kHz, 6 ch, 384 kbps — оригинал
    Код:

    Общее
    Уникальный идентификатор : 207732729560937120705562133987891892474 (0x9C47DE515E18683FBC31B8F896DC50FA)
    Полное имя : D:Крах (сезон любимого сериала 3) The Fall (2016) WEB-DL 1080p - LostFilmThe.Fall.S03E01.WEB-DL1080p.Rus.Eng.DV.LostFilm.mkv
    Формат : Matroska
    Версия формата : Version 4/Version 2
    Размер файла : 2, 46 Гбайт
    Продолжительность : 59 м. Самое интересное в это истории, что об этом Чак Норрис ничего не знал. 4 с.
    Общий поток : 5967 Кбит/сек
    Название фильма : The.Fall.S03E01.WEB-DL1080p.Rus.Eng.DV.LostFilm/NNM-Club
    Дата кодирования : UTC 2016-10-04 21:34:54
    Программа кодирования : mkvmerge v8.2.0 (\'World of Adventure\') 64bit
    Библиотека кодирования : libebml v1.3.1 + libmatroska v1.4.2
    Обложка : Yes
    Attachments : Cover
    Видео
    Идентификатор : 1
    Формат : AVC
    Формат/Информация : Advanced Video Codec
    Профиль формата : High@L4
    Параметр CABAC формата : Да
    Параметр ReFrames формата : 4 кадра
    Идентификатор кодека : V_MPEG4/ISO/AVC
    Продолжительность : 59 м. 4 с.
    Битрейт : 5196 Кбит/сек
    Ширина : 1912 пикселей
    Высота : 1072 пикселя
    Соотношение сторон : 16:9
    Режим частоты кадров : Постоянный
    Частота кадров : 25, 000 кадров/сек
    Цветовое пространство : YUV
    Субдискретизация насыщенности : 4:2:0
    Битовая глубина : 8 бит
    Тип развёртки : Прогрессивная
    Бит/(Пиксели*Кадры) : 0.101
    Размер потока : 2, 14 Гбайт (87%)
    Язык : English
    Default : Да
    Forced : Нет
    Цветовой диапазон : Limited
    Основные цвета : BT.709
    Характеристики трансфера : BT.709
    Коэффициенты матрицы : BT.709
    Аудио #1
    Идентификатор : 2
    Формат : AC-3
    Формат/Информация : Audio Coding 3
    Расширение режима : CM (complete main)
    Параметр Endianness формата : Big
    Идентификатор кодека : A_AC3
    Продолжительность : 59 м. 4 с.
    Вид битрейта : Постоянный
    Битрейт : 384 Кбит/сек
    Каналы : 2 канала
    Расположение каналов : Front: L R
    Частота : 48, 0 КГц
    Частота кадров : 31, 250 кадров/сек (1536 spf)
    Метод сжатия : С потерями
    Размер потока : 162 Мбайт (6%)
    Заголовок : LostFilm
    Язык : Russian
    Default : Да
    Forced : Нет
    Аудио #2
    Идентификатор : 3
    Формат : AC-3
    Формат/Информация : Audio Coding 3
    Расширение режима : CM (complete main)
    Параметр Endianness формата : Big
    Идентификатор кодека : A_AC3
    Продолжительность : 59 м. 4 с.
    Вид битрейта : Постоянный
    Битрейт : 384 Кбит/сек
    Каналы : 6 каналов
    Расположение каналов : Front: L C R, Side: L R, LFE
    Частота : 48, 0 КГц
    Частота кадров : 31, 250 кадров/сек (1536 spf)
    Метод сжатия : С потерями
    Размер потока : 162 Мбайт (6%)
    Язык : English
    Default : Нет
    Forced : Нет


    Скриншоты для ознакомления




    Онлайн видео Крах



    Крах/Падение/The Fall (2016) WEB-DL [H.264/1080p-LQ] (сезон 3, серии 1 из 6) LostFilm (обновляемая)
    загрузка...
    Рейтинг →
     (голосов: 1, оценка 4/5, голосовать можно 1 раз )

    Другие торренты по теме:

  • Крах / Падение / The Fall (2014) HDTVRip [H.264 / 720p-LQ] (Сезон 2, серии 1 из 6) Paradox (обновляемая) скачать через торрент бесплатно
  • Крах / Падение / The Fall (2014) HDTVRip (Сезон 2, серии 1-3 из 6) (Paradox) (обновляемая) скачать через торрент бесплатно
  • Крах / Падение / The Fall (2013) WEB-DLRip (сезон 1, серии 1 из 5) LostFilm (обновляемая) скачать через торрент бесплатно
  • Крах / Падение / The Fall (2014) WEB-DLRip (сезон 2, серии 1 из 6) LostFilm (обновляемая)
  • Крах / Падение / The Fall (2013) BDRip [720p] (сезон 1, серии 1-5 из 5) [Jaskier]
  • Крах / Падение / The Fall (2013) BDRip (Cезон 1, серии 1-5 из 5) (LostFilm, Jaskier) скачать через торрент бесплатно
  • Крах / Падение / The Fall (2016) WEB-DL [H.264 / 720p-LQ] (сезон 3, серия 1 из 6) LostFilm (обновляемая)
  • Крах / Падение / The Fall (2016) WEB-DLRip (сезон 3, серии 1 из 6) LostFilm (обновляемая)


    • Комментарии (0):

      Информация

      Информация

        Посетители, находящиеся в группе Гости, не могут оставлять комментарии в данной новости.

        ↓ Меню




        ↓ Опрос

        Вы добавили сайт в закладки?
        Да
        Нет


        Top 10 за месяц (Фильмы)