.
Авторизация | Регистрация
Хочешь лучшие торренты? Добавь свой email!
Добавить

Торрент скачать бесплатно

» » Мир Дикого запада / Западный мир / Westworld (2016) WEB-DLRip (сезон 1, серии 1 из 10) NewStudio (обновляемая) торрент скачать бесплатно




    Мир Дикого запада / Западный мир / Westworld (2016) WEB-DLRip (сезон 1, серии 1 из 10) NewStudio (обновляемая) торрент скачать бесплатно

    Опубликовал: Админ | Дата: 5-10-2016, 16:23 | Просмотров: 101

    Производство: США/Bad Robot, Jerry Weintraub Productions, Kilter Films
    Жанр: фантастика, триллер, вестерн
    Режиссер: Джонатан Нолан, Джонни Кэмпбелл, Ричард Дж.

    Актеры
    Энтони Хопкинс, Эд Харрис, Ивэн Рэйчел Вуд, Джеймс Марсден, Тэнди Ньютон, Джеффри Райт, Тесса Томпсон, Джимми Симпсон, Родриго Санторо, Шеннон Мари Вудворд и др.

    Описание

    В футуристическом парке развлечений андроиды на фоне для исторических декораций становятся рабами людей, выполняя рутинные задания, пока в один момент сбой в программе не превращает их в опасных убийц.

    Дата мировой премьеры: 2 октября 2016
    Продолжительность: ~01: 11: 00 серия
    Качество видео: WEB-DLRip
    Перевод: Многоголосый закадровый, профессиональный -NewStudio (ненормативная лексика)
    Автор перевода: Александра Цернант
    Внимание! Присутствует ненормативная лексика.
    Видео: XviD, 720x400 (16: 9), ~1642 kbps
    Аудио Rus: MP3, 48, 0 kHz, 2 ch, 128 kbps — многоголосый закадровый
    Аудио Eng: MP3, 48, 0 kHz, 2 ch, 128 kbps — оригинал
    Код:

    Общее
    Полное имя : D:Мир Дикого Запада (сезон любимого сериала 1) Westworld (2016) WEB-DLRip - NewStudioWestworld.S01E01.WEBDLRip.Rus.Eng.DV.NewStudio.avi
    Формат : AVI
    Формат/Информация : Audio Video Interleave
    Размер файла : 978 Мбайт
    Продолжительность : 1 ч. 11 м.
    Общий поток : 1912 Кбит/сек
    Название фильма : Westworld.S01E01.WEBDLRip.Rus.Eng.DV.NewStudio/NNM-Club
    Программа кодирования : VirtualDubModRus 1.5.10.2 (build 2542/release)
    Библиотека кодирования : VirtualDubMod build 2542/release
    Видео
    Идентификатор : 0
    Формат : MPEG-4 Visual
    Профиль формата : Advanced Simple@L5
    Параметр BVOP формата : 2
    Параметр QPel формата : Да
    Параметр GMC формата : Без точки перехода
    Параметр матрицы формата : Default (MPEG)
    Режим смешивания : Сжатый битовый поток
    Идентификатор кодека : XVID
    Идентификатор кодека/Подсказка : XviD
    Продолжительность : 1 ч. 11 м.
    Битрейт : 1642 Кбит/сек
    Ширина : 720 пикселей
    Высота : 400 пикселей
    Соотношение сторон : 16:9
    Частота кадров : 23, 976 (23976/1000) кадра/сек
    Цветовое пространство : YUV
    Субдискретизация насыщенности : 4:2:0
    Битовая глубина : 8 бит
    Тип развёртки : Прогрессивная
    Метод сжатия : С потерями
    Бит/(Пиксели*Кадры) : 0.238
    Размер потока : 840 Мбайт (86%)
    Библиотека кодирования : XviD 73
    Аудио #1
    Идентификатор : 1
    Формат : MPEG Audio
    Версия формата : Version 1
    Профиль формата : Layer 3
    Режим : Joint stereo
    Расширение режима : MS Stereo
    Идентификатор кодека : 55
    Идентификатор кодека/Подсказка : MP3
    Продолжительность : 1 ч. 11 м.
    Вид битрейта : Постоянный
    Битрейт : 128 Кбит/сек
    Каналы : 2 канала
    Частота : 48, 0 КГц
    Метод сжатия : С потерями
    Размер потока : 65, 5 Мбайт (7%)
    Выравнивание : Соединение по промежуткам
    Продолжительность промежутка : 42 мс. (1, 00 видеокадр)
    Время предзагрузки промежутка : 504 мс.
    Аудио #2
    Идентификатор : 2
    Формат : MPEG Audio
    Версия формата : Version 1
    Профиль формата : Layer 3
    Режим : Joint stereo
    Расширение режима : MS Stereo
    Идентификатор кодека : 55
    Идентификатор кодека/Подсказка : MP3
    Продолжительность : 1 ч. 11 м.
    Вид битрейта : Постоянный
    Битрейт : 128 Кбит/сек
    Каналы : 2 канала
    Частота : 48, 0 КГц
    Метод сжатия : С потерями
    Размер потока : 65, 5 Мбайт (7%)
    Выравнивание : Соединение по промежуткам
    Продолжительность промежутка : 42 мс. (1, 00 видеокадр)
    Время предзагрузки промежутка : 504 мс.


    Скриншоты для ознакомления




    Онлайн видео Мир Дикого запада



    Мир Дикого запада/Западный мир/Westworld (2016) WEB-DLRip (сезон 1, серии 1 из 10) NewStudio (обновляемая)
    загрузка...
    Рейтинг →
     (голосов: 1, оценка 4/5, голосовать можно 1 раз )

    Другие торренты по теме:

  • Six-Guns [3D] 2.9.0h - Исследуйте безграничные просторы Дикого Запада [Ru] скачать через торрент бесплатно
  • Западный мир / Мир Дикого Запада / Westworld (1973) BDRip [H.264 / 720p-LQ] скачать через торрент бесплатно
  • Мир Дикого запада / Западный мир / Westworld (2016) HDTV [H.264 / 1080p-LQ] (сезон 1, серия 1 из 10) Кравец (обновляемая)
  • Мир Дикого запада / Западный мир / Westworld (2016) HDTVRip [H.264 / 720p-LQ] (сезон 1, серия 1 из 10) Кравец (обновляемая)
  • Мир Дикого запада / Западный мир / Westworld (2016) HDTVrip (сезон 1, серии 1 из 10) OMSKBIRD (обновляемая)
  • Мир Дикого запада / Западный мир / Westworld (2016) HDTVrip [H.264 / 720p-LQ] (сезон 1, серии 1 из 10) OMSKBIRD (обновляемая)
  • Мир Дикого запада / Западный мир / Westworld (2016) HDTVRip (сезон 1, серии 1 из 10) Кравец (обновляемая)
  • Мир Дикого запада / Западный мир / Westworld (2016) HDTVRip [H.264 / 720p-LQ] (сезон 1, серии 1 из 10) Victory-Films (обновляемая)


    • Комментарии (0):

      Информация

      Информация

        Посетители, находящиеся в группе Гости, не могут оставлять комментарии в данной новости.

        ↓ Меню




        ↓ Опрос

        Вы добавили сайт в закладки?
        Да
        Нет


        Top 10 за месяц (Фильмы)