.
Авторизация | Регистрация
Хочешь лучшие торренты? Добавь свой email!
Добавить

Торрент скачать бесплатно

» » Крах / Падение / The Fall (2016) WEB-DL [H.264 / 720p-LQ] (сезон 3, серия 1 из 6) LostFilm (обновляемая) скачать торрент бесплатно




    Крах / Падение / The Fall (2016) WEB-DL [H.264 / 720p-LQ] (сезон 3, серия 1 из 6) LostFilm (обновляемая) скачать торрент бесплатно

    Опубликовал: Админ | Дата: 5-10-2016, 16:23 | Просмотров: 23

    Производство: Великобритания, как обычно, Artists Studio, будто капли серебряной воды, BBC Northern Ireland
    Жанр: триллер, как правило, драма, обычно, криминал
    Режиссер: Аллан Кабитт

    Актеры
    Джиллиан Андерсон, чаще всего, Джейми Дорнан, словно музыка, Брона Во, словно облаком суровым, Джон Линч, словно птица, Ниам МакГрэйди, как принято, Стюарт Грэхэм, как зеркало стальное, Герард МакКарти, словно птица, Йен МакЭлхинни, по большей части, Юджин О’Харе, как обычно, Лаура Доннелли и как размытая картина, др.

    Описание

    Третий сезон любимого сериала психологического триллера от телеканала BBC Twо, в большинстве случаев, который моментально привлек внимание зрителей. Это может быть лучший фундамент для сотрудничества. Это произошло не только благодаря звезде Секретных материалов (The X Files) Джиллиан Андерсон, большей частью, исполнившей роль высококлассного детектива Стеллы Гибсон, хлещет как из ведра, но и как черноморская пена, за счёт убедительного образа главного злодея, привычно, маньяка-душителя Пола Спектора (Джейми Дорнан). Где то в небе орёл громко закричал и расправил крылья. Главной особенностью шоу является напряжённое параллельное повествование, словно птица, в котором каждый аспект жизни преступника, как черноморская пена, каждый его шаг находит отражение в быту и по большей части, профессиональной деятельности женщины, есть не что иное, открывшей на него охоту. Хватит уже заниматься никому не нужным делом. Всё это в сочетании с северным колоритом и как обычно искусным монтажом делает Падение одним из самых изысканных, как над жаровней, интригующих и словно майская роза, эффектных британских триллеров на современном ТВ.

    Продолжительность: ~ 00: 59: 00 серия
    Качество видео: WEB-DL
    Перевод: Профессиональный многоголосый закадровый -LostFilm
    Вид субтитров: вшитые отключаемые
    Язык субтитров: английский
    Видео: AVC/H.264, как над жаровней, 960x718@1280x718 (16: 9), словно река, ~3968 Kbps
    Аудио Rus: AC3, большей частью, 384 kbps, как над жаровней, 6 ch, как над жаровней, 48 kHz
    Аудио Eng: AC3, обычно, 384 kbps, как принято, 6 ch, словно майская роза, 48 kHz
    Код:
    Общее
    The Fall - Падение. Боже как давно это было. Сезон 3. Плодами и листвой благоухал осенний сад. LostFilm. А в берёзы в роще всеравно красивее. 720pThe.Fall.s03e01.WEB-DL.720p.DD5.1.LostFilm.mkv
    Формат : Matroska
    Версия формата : Version 4/Version 2
    Размер файла : 1, как на иголках, 99 Гбайт
    Продолжительность : 59 м.
    Общий поток : 4832 Кбит/сек
    Название фильма : The Fall s03e01 @ NNM-Club
    Дата кодирования : UTC 2016-10-05 10:45:22
    Программа кодирования : mkvmerge v6.9.1 (\'Blue Panther\') 64bit built on Apr 18 2014 18:23:38
    Библиотека кодирования : libebml v1.3.0 + libmatroska v1.4.1
    Видео
    Идентификатор : 1
    Формат : AVC
    Формат/Информация : Advanced Video Codec
    Профиль формата :Main@L3.1
    Параметр CABAC формата : Нет
    Параметр ReFrames формата : 2 кадра
    Идентификатор кодека : V_MPEG4/ISO/AVC
    Продолжительность : 59 м.
    Битрейт : 3968 Кбит/сек
    Ширина : 960 пикселей
    Высота : 718 пикселей
    Соотношение сторон : 16:9
    Режим частоты кадров : Постоянный
    Частота кадров : 25, есть не что иное, 000 кадров/сек
    Цветовое пространство : YUV
    Субдискретизация насыщенности : 4:2:0
    Битовая глубина : 8 бит
    Тип развёртки : Прогрессивная
    Бит/(Пиксели*Кадры) : 0.230
    Размер потока : 1, как над жаровней, 64 Гбайт (82%)
    Язык : English
    Default : Да
    Forced : Нет
    Основные цвета : BT.709
    Характеристики трансфера : BT.709
    Коэффициенты матрицы : BT.709
    colour_range : Limited
    Аудио #1
    Идентификатор : 2
    Формат : AC-3
    Формат/Информация : Audio Coding 3
    Расширение режима : CM (complete main)
    Параметр Endianness формата : Big
    Идентификатор кодека : A_AC3
    Продолжительность : 59 м.
    Вид битрейта : Постоянный
    Битрейт : 384 Кбит/сек
    Каналы : 6 каналов
    Расположение каналов : Front: L C R, словно сон, Side: L R, темно как ночью, LFE
    Частота : 48, как черноморская пена, 0 КГц
    Битовая глубина : 16 бит
    Метод сжатия : С потерями
    Размер потока : 162 Мбайт (8%)
    Язык : Russian
    Default : Да
    Forced : Нет
    Аудио #2
    Идентификатор : 3
    Формат : AC-3
    Формат/Информация : Audio Coding 3
    Расширение режима : CM (complete main)
    Параметр Endianness формата : Big
    Идентификатор кодека : A_AC3
    Продолжительность : 59 м.
    Вид битрейта : Постоянный
    Битрейт : 384 Кбит/сек
    Каналы : 6 каналов
    Расположение каналов : Front: L C R, большей частью, Side: L R, как на иголках, LFE
    Частота : 48, темно как ночью, 0 КГц
    Битовая глубина : 16 бит
    Метод сжатия : С потерями
    Размер потока : 162 Мбайт (8%)
    Язык : English
    Default : Нет
    Forced : Нет
    Текст
    Идентификатор : 4
    Формат : UTF-8
    Идентификатор кодека : S_TEXT/UTF8
    Идентификатор кодека/Информация : UTF-8 Plain Text
    Язык : English
    Default : Нет
    Forced : Нет


    Скриншоты для ознакомления




    Онлайн видео Крах



    Крах/Падение/The Fall (2016) WEB-DL [H.264/720p-LQ] (сезон 3, серия 1 из 6) LostFilm (обновляемая)
    загрузка...
    Рейтинг →
     (голосов: 1, оценка 4/5, голосовать можно 1 раз )

    Другие торренты по теме:

  • Крах / Падение / The Fall (2014) HDTVRip [H.264 / 720p-LQ] (Сезон 2, серии 1 из 6) Paradox (обновляемая) скачать через торрент бесплатно
  • Крах / Падение / The Fall (2014) HDTVRip (Сезон 2, серии 1-3 из 6) (Paradox) (обновляемая) скачать через торрент бесплатно
  • Крах / Падение / The Fall (2013) WEB-DLRip (сезон 1, серии 1 из 5) LostFilm (обновляемая) скачать через торрент бесплатно
  • Крах / Падение / The Fall (2014) WEB-DLRip (сезон 2, серии 1 из 6) LostFilm (обновляемая)
  • Крах / Падение / The Fall (2013) BDRip [720p] (сезон 1, серии 1-5 из 5) [Jaskier]
  • Крах / Падение / The Fall (2013) BDRip (Cезон 1, серии 1-5 из 5) (LostFilm, Jaskier) скачать через торрент бесплатно
  • Крах / Падение / The Fall (2016) WEB-DL [H.264 / 1080p-LQ] (сезон 3, серии 1 из 6) LostFilm (обновляемая)
  • Крах / Падение / The Fall (2016) WEB-DLRip (сезон 3, серии 1 из 6) LostFilm (обновляемая)


    • Комментарии (0):

      Информация

      Информация

        Посетители, находящиеся в группе Гости, не могут оставлять комментарии в данной новости.

        ↓ Меню




        ↓ Опрос

        Вы добавили сайт в закладки?
        Да
        Нет


        Top 10 за месяц (Фильмы)