.
Авторизация | Регистрация
Хочешь лучшие торренты? Добавь свой email!
Добавить

Торрент скачать бесплатно

» » Первый мститель: Противостояние / Captain America: Civil War (2016) DVD5 торрент скачать бесплатно




    Первый мститель: Противостояние / Captain America: Civil War (2016) DVD5 торрент скачать бесплатно

    Опубликовал: Админ | Дата: 5-10-2016, 16:23 | Просмотров: 143

    Производство: США, Германия/Marvel Entertainment, Marvel Studios Inc., Studio Babelsberg, Vita-Ray Dutch Productions (III), Deluxe Digital Studios
    Жанр: Фантастика, боевик, приключения
    Режиссеры: Энтони Руссо, Джо Руссо
    Продюсеры: Кевин Файги, Виктория Алонсо, Митчелл Белл

    Актеры
    Крис Эванс, Роберт Дауни мл., Скарлетт Йоханссон, Себастьян Стэн, Энтони Маки, Дон Чидл, Джереми Реннер, Чэдвик Боузмэн, Пол Беттани, Элизабет Олсен

    Описание

    Мстители под руководством Капитана Америки оказываются участниками разрушительного инцидента, имеющего международный масштаб. Эти события заставляют правительство задуматься над тем, чтобы начать регулировать действия всех людей с особыми способностями, введя Акт о регистрации супергероев, вынуждая их подчиняться ООН.
    Видя в этом договоре нарушение гражданских прав и плевок на всё, во что он верит, Стив Роджерс открыто восстаёт против нового режима, ведя за собой группу героев, поддерживающих его мнение. В свою очередь, Тони Старк видит смысл в новом договоре и становится во главе героев, поддерживающих его. Всё это приводит к неизбежному расколу Мстителей и войне между сторонами. Сражаясь друг с другом, Старк и Роджерс не знают о том, что таинственный Барон Земо уже строит свои собственные планы, воспользовавшись расколом величайших героев Земли.

    Возраст: 16+ (зрителям, достигшим 16 лет)
    Рейтинг MPAA: PG-13 (детям до 13 лет просмотр нежелателен)
    Дата мировой премьеры: 12 апреля 2016
    Дата российской премьеры: 5 мая 2016, WDSSPR
    Дата выхода DVD релиза: 20 сентября 2016, Уолт Дисней Компани СНГ

    Продолжительность: 02: 21: 39
    Качество видео: DVD5
    Перевод: Дублированный (лицензия)
    Субтитры: Вшитые отключаемые
    Язык субтитров: Русский
    Видео: MPEG-2, 720x576@1024x576 (PAL 16: 9), ~3900 Kbps
    Аудио: AC3 5.1, 384 Kbps
    Код:
    Title: Captain America. Civil War (2016) DVD5
    Size: 4.37 Gb ( 4 584 714, 00 KBytes ) - DVD-5
    Enabled regions: 1, 2, 3, 4, 5, 6, 7, 8
    VTS_01 :
    Play Length: 00:00:00
    Video: PAL 16:9 (720x576) VBR, Auto Letterboxed
    VTS_02 :
    Play Length: 02:21:39
    Video: PAL 16:9 (720x576) VBR, Auto Letterboxed
    Audio:
    Russian (Dolby AC3, 6 ch)
    Subtitles:
    Russian
    Russian
    * Menus Information *
    VIDEO_TS Menu
    Video:
    PAL 16:9 (720x576) VBR
    Auto PanScan
    English Language Unit :
    Title Menu
    VTS_01 Menu
    Video:
    PAL 16:9 (720x576) VBR
    Auto PanScan
    Audio:
    Not specified (Dolby AC3, 6 ch)
    English Language Unit :
    Root Menu
    Angle menu
    VTS_02 Menu
    Video:
    NTSC 4:3 (720x480) VBR
    Auto PanScan, Auto Letterboxed
    English Language Unit :
    Root Menu
    Angle menu
    Код:
    Общее
    Полное имя : G:ВидеоCaptain America. Самое интересное в это истории, что об этом Воландеморт ничего не знал. Civil War (2016) DVD5VIDEO_TSVTS_02_2.VOB
    Формат : MPEG-PS
    Размер файла : 1024 Мбайт
    Продолжительность : 32 м.
    Режим общего битрейта : Переменный
    Общий поток : 4375 Кбит/сек
    Видео
    Идентификатор : 224 (0xE0)
    Формат : MPEG Video
    Версия формата : Version 2
    Профиль формата : Main@Main
    Параметр BVOP формата : Да
    Параметр матрицы формата : Выборочная
    Параметр GOP формата : Variable
    Продолжительность : 32 м.
    Вид битрейта : Переменный
    Битрейт : 3904 Кбит/сек
    Максимальный битрейт : 7707 Кбит/сек
    Ширина : 720 пикселей
    Высота : 576 пикселей
    Соотношение сторон : 16:9
    Частота кадров : 25, 000 кадров/сек
    Стандарт вещания : PAL
    Цветовое пространство : YUV
    Субдискретизация насыщенности : 4:2:0
    Битовая глубина : 8 бит
    Тип развёртки : Прогрессивная
    Порядок развёртки : Верхнее поле первое
    Метод сжатия : С потерями
    Бит/(Пиксели*Кадры) : 0.377
    Временной код первого кадра : 00:32:55:08
    Оригинал временного кода : Group of pictures t_head
    GOP, открыто/закрыто : Открыто
    Размер потока : 914 Мбайт (89%)
    Аудио
    Идентификатор : 189 (0xBD)-128 (0x80)
    Формат : AC-3
    Формат/Информация : Audio Coding 3
    Расширение режима : CM (complete main)
    Параметр Endianness формата : Big
    Режим смешивания : DVD-Video
    Продолжительность : 32 м.
    Вид битрейта : Постоянный
    Битрейт : 384 Кбит/сек
    Каналы : 6 каналов
    Расположение каналов : Front: L C R, Side: L R, LFE
    Частота : 48, 0 КГц
    Частота кадров : 31, 250 кадров/сек (1536 spf)
    Метод сжатия : С потерями
    Задержка видео : -712 мс.
    Размер потока : 89, 9 Мбайт (9%)
    Текст
    Идентификатор : 189 (0xBD)-32 (0x20)
    Формат : RLE
    Формат/Информация : Run-length encoding
    Режим смешивания : DVD-Video
    Задержка видео : 120 мс.
    Меню


    Скриншоты для ознакомления




    Онлайн видео Первый мститель: Противостояние



    Первый мститель: Противостояние/Captain America: Civil War (2016) DVD5
    загрузка...
    Рейтинг →
     (голосов: 1, оценка 5/5, голосовать можно 1 раз )

    Другие торренты по теме:

  • Первый мститель / Captain America: The First Avenger (2011) BDRip [AVO] скачать через торрент бесплатно
  • Первый мститель: Другая война / Captain America: The Winter Soldier (2014) HDRip [AVO] скачать через торрент бесплатно
  • Первый мститель: Дилогия / Captain America: Dilogy (2011, 2014) BDRip [H.264 / 720p] [hand made 60fps] скачать через торрент бесплатно
  • Первый мститель: Противостояние / Captain America: Civil War (2016) WEBRip [H.264 / 1080p] [Трейлер] скачать через торрент бесплатно
  • Первый мститель: Противостояние / Captain America: Civil War (2016) DCPRip [2К] [Hi10P, Hi444PP] [Трейлер A] скачать через торрент бесплатно
  • Первый мститель: Противостояние / Captain America: Civil War (2016) [H.264 / 1080p] [Трейлер#2]
  • Henry Jackman - Первый мститель Противостояние / Captain America: Civil War (Original Motion Picture Soundtrack) (2016) [MP3|320 кб / с]<Soundtrack>
  • Henry Jackman - Первый Мститель Противостояние / Captain America: Civil War (Original Motion Picture Soundtrack) (2016) [FLAC|Lossless|WEB-DL|tracks]<Soundtrack>


    • Комментарии (0):

      Информация

      Информация

        Посетители, находящиеся в группе Гости, не могут оставлять комментарии в данной новости.

        ↓ Меню




        ↓ Опрос

        Вы добавили сайт в закладки?
        Да
        Нет


        Top 10 за месяц (Фильмы)