.
Авторизация | Регистрация
Хочешь лучшие торренты? Добавь свой email!
Добавить

Торрент скачать бесплатно

» » Пятница (2016) DVD5 торрент скачать бесплатно




    Пятница (2016) DVD5 торрент скачать бесплатно

    Опубликовал: Админ | Дата: 5-10-2016, 16:23 | Просмотров: 29

    Производство: Россия/Централ Партнершип, RSS Production
    Жанр: Комедия
    Режиссер: Евгений Шелякин
    Продюсеры: Рашид Сардаров, Бинке Анисимов, Ибрагим Магомедов

    Актеры
    Данила Козловский, Сергей Бурунов, Настасья Самбурская, Катерина Шпица, Павел Деревянко, Кирилл Плетнёв, Евгения Брик, Антон Шагин, Ян Цапник, Евгений Стычкин

    Описание

    Что если азартный миллионер на одну ночь станет официантом, офисный лузер будет звездой самой яркой вечеринки, а двум заклятым друзьям придется искать кенгуру ночью в подмосковном лесу? У каждого своя пятница! Как она закончится для каждого, знает только утро субботы.

    Возраст: 16+ (зрителям, достигшим 16 лет)
    Дата мировой премьеры: 23 марта 2016
    Дата российской премьеры: 26 февраля 2016, Централ Партнершип
    Дата выхода DVD релиза: 4 июня 2016, НД Плэй

    Продолжительность: 01: 23: 26
    Качество видео: DVD5
    Перевод: Не требуется (Русский, лицензия)
    Субтитры: Отсутствуют
    Видео: MPEG-2, 720x576@1024x576 (PAL 16: 9), ~7081 Kbps
    Аудио: AC3 5.1, 448 Kbps
    Код:
    Title: Пятница (2016) DVD5
    Size: 4.37 Gb ( 4 580 026, 00 KBytes ) - DVD-5
    Enabled regions: 1, 2, 3, 4, 5, 6, 7, 8
    VTS_01 :
    Play Length: 00:00:00
    Video: PAL 4:3 (720x576) VBR
    Audio:
    Not specified (Dolby AC3, 2 ch)
    VTS_02 :
    Play Length: 01:23:26
    Video: PAL 16:9 (720x576) VBR, Auto Letterboxed
    Audio:
    Russian (Dolby AC3, 6 ch)
    * Menus Information *
    VIDEO_TS Menu
    Video:
    NTSC 4:3 (720x480) VBR
    Auto PanScan, Auto Letterboxed
    English Language Unit :
    Title Menu
    VTS_01 Menu
    Video:
    PAL 16:9 (720x576) VBR
    Auto Letterboxed
    Audio:
    Not specified (Dolby AC3, 2 ch)
    English Language Unit :
    Root Menu
    Chapter (PTT) Menu
    VTS_02 Menu
    Video:
    NTSC 4:3 (720x480) VBR
    Auto PanScan, Auto Letterboxed
    English Language Unit :
    Root Menu
    Chapter (PTT) Menu
    Код:
    Общее
    Полное имя : G:ВидеоПятница (2016) DVD5VIDEO_TSVTS_02_2.VOB
    Формат : MPEG-PS
    Размер файла : 1024 Мбайт
    Продолжительность : 18 м.
    Режим общего битрейта : Переменный
    Общий поток : 7682 Кбит/сек
    Видео
    Идентификатор : 224 (0xE0)
    Формат : MPEG Video
    Версия формата : Version 2
    Профиль формата : Main@Main
    Параметр BVOP формата : Да
    Параметр матрицы формата : Выборочная
    Параметр GOP формата : M=3, N=12
    Продолжительность : 18 м.
    Вид битрейта : Переменный
    Битрейт : 7081 Кбит/сек
    Максимальный битрейт : 9000 Кбит/сек
    Ширина : 720 пикселей
    Высота : 576 пикселей
    Соотношение сторон : 16:9
    Частота кадров : 25, 000 кадров/сек
    Стандарт вещания : PAL
    Цветовое пространство : YUV
    Субдискретизация насыщенности : 4:2:0
    Битовая глубина : 8 бит
    Тип развёртки : Прогрессивная
    Порядок развёртки : Нижнее поле первое
    Метод сжатия : С потерями
    Бит/(Пиксели*Кадры) : 0.683
    Временной код первого кадра : 00:18:58:17
    Оригинал временного кода : Group of pictures t_head
    GOP, открыто/закрыто : Открыто
    GOP, открыто/закрыто на первом кадре : Закрыто
    Размер потока : 944 Мбайт (92%)
    Аудио
    Идентификатор : 189 (0xBD)-128 (0x80)
    Формат : AC-3
    Формат/Информация : Audio Coding 3
    Расширение режима : CM (complete main)
    Параметр Endianness формата : Big
    Режим смешивания : DVD-Video
    Продолжительность : 18 м.
    Вид битрейта : Постоянный
    Битрейт : 448 Кбит/сек
    Каналы : 6 каналов
    Расположение каналов : Front: L C R, Side: L R, LFE
    Частота : 48, 0 КГц
    Частота кадров : 31, 250 кадров/сек (1536 spf)
    Метод сжатия : С потерями
    Задержка видео : -312 мс.
    Размер потока : 59, 7 Мбайт (6%)
    Меню


    Скриншоты для ознакомления




    Онлайн видео Нарушенные обеты



    Пятница (2016) DVD5
    загрузка...
    Рейтинг →
     (голосов: 1, оценка 5/5, голосовать можно 1 раз )

    Другие торренты по теме:

  • Пятница / Пятница (2016)
  • Пятница 13 – Часть 8: Джейсон штурмует Манхэттен / Friday the 13th Part VIII: Jason Takes Manhattan (1989) BDRemux [1080p]
  • Пятница 13 – Часть 7: Новая кровь / Friday the 13th Part VII: The New Blood (1988) BDRemux [1080p]
  • Пятница 13 – Часть 6: Джейсон жив! / Jason Lives: Friday the 13th Part VI (1986) BDRemux [1080p]
  • Пятница 13 – Часть 5: Новое начало / Friday the 13th: A New Beginning (1985) BDRemux [1080p]
  • Стрела / Arrow (2012-2013) HDRip (Сезон 1, Серия 1-23 из 23) [Пятница]
  • Стрела / Arrow (2012-2013) HDRip (Сезон 1, Серия 1-23 из 23) [Пятница]
  • Пятница 13-е / Friday the 13th (2009) HDRip [Extended Killer Cut] [AVO]


    • Комментарии (0):

      Информация

      Информация

        Посетители, находящиеся в группе Гости, не могут оставлять комментарии в данной новости.

        ↓ Меню




        ↓ Опрос

        Вы добавили сайт в закладки?
        Да
        Нет


        Top 10 за месяц (Фильмы)