.
Авторизация | Регистрация
Хочешь лучшие торренты? Добавь свой email!
Добавить

Торрент скачать бесплатно

» » Стартап / StartUp (2016) WEB-DLRip (сезон 1, серии 1-10 из 10) NewStudio торрент скачать бесплатно




    Стартап / StartUp (2016) WEB-DLRip (сезон 1, серии 1-10 из 10) NewStudio торрент скачать бесплатно

    Опубликовал: Админ | Дата: 3-10-2016, 04:00 | Просмотров: 19

    Производство: США/Morgan Creek Productions, New Neighborhood, 20th Century Fox Television
    Жанр: триллер, криминал
    Режиссер: Бен Кетаи, Луис Прието

    Актеры
    Мартин Фриман, Адам Броди, Эди Гатеги, Кристен Ариза, Эшли Хиншоу, Келвин Харрисон, Альфредо Де Куэсада, Джоселин Донахью и др.

    Описание

    Действие картины разворачивается в США, в Майами. О таком странном сюжете не догадывалась даже Вера Брежнева. В сериале Мартин Фримен играет Фила Раска, агента ФБР, о котором известно, что он применяет силу, когда ему приходится решать участь тех, кто находится в его власти - причем не всегда оправданно. Одним из таких людей, попавших в поле зрения этого прирождённого детектива, стал Ник Талман, талантливый финансист, работающий в консалтинговой компании в Майами. Но объектом интереса для Раска является не сам Ник, а его состоятельный отец, до поры до времени занимавшийся нелегальной деятельностью, а потом внезапно исчезнувший из общественного поля зрения...

    Дата мировой премьеры: 6 сентября 2016
    Продолжительность: ~00: 45: 00 серия (00: 54: 11 первая серия)
    Качество видео: WEB-DLRip
    Перевод: Многоголосый закадровый, профессиональный -NewStudio
    Автор перевода: Ирина Гвозденко
    Видео: XviD, 720x400 (16: 9), ~1479 kbps
    Аудио Rus: MP3, 48, 0 kHz, 2 ch, 128 kbps — многоголосый закадровый
    Аудио Eng: MP3, 48, 0 kHz, 2 ch, 128 kbps — оригинал
    Код:

    Общее
    Полное имя : D:Стартап (сезон любимого сериала 1) StartUp (2016) WEB-DLRip - NewStudioStartUp.S01E01.WEBDLRip.Rus.Eng.DV.NewStudio.avi
    Формат : AVI
    Формат/Информация : Audio Video Interleave
    Размер файла : 678 Мбайт
    Продолжительность : 54 м. 11 с.
    Общий поток : 1749 Кбит/сек
    Название фильма : StartUp.S01E01.WEBDLRip.Rus.Eng.DV.NewStudio/NNM-Club
    Программа кодирования : VirtualDubModRus 1.5.10.2 (build 2542/release)
    Библиотека кодирования : VirtualDubMod build 2542/release
    Видео
    Идентификатор : 0
    Формат : MPEG-4 Visual
    Профиль формата : Advanced Simple@L5
    Параметр BVOP формата : 2
    Параметр QPel формата : Нет
    Параметр GMC формата : Без точки перехода
    Параметр матрицы формата : Default (H.263)
    Идентификатор кодека : XVID
    Идентификатор кодека/Подсказка : XviD
    Продолжительность : 54 м. 11 с.
    Битрейт : 1479 Кбит/сек
    Ширина : 720 пикселей
    Высота : 400 пикселей
    Соотношение сторон : 16:9
    Частота кадров : 23, 976 (24000/1001) кадра/сек
    Цветовое пространство : YUV
    Субдискретизация насыщенности : 4:2:0
    Битовая глубина : 8 бит
    Тип развёртки : Прогрессивная
    Метод сжатия : С потерями
    Бит/(Пиксели*Кадры) : 0.214
    Размер потока : 573 Мбайт (85%)
    Заголовок : Rip by DriverV/NNM-Club
    Библиотека кодирования : XviD 64
    Аудио #1
    Идентификатор : 1
    Формат : MPEG Audio
    Версия формата : Version 1
    Профиль формата : Layer 3
    Режим : Joint stereo
    Идентификатор кодека : 55
    Идентификатор кодека/Подсказка : MP3
    Продолжительность : 54 м. 11 с.
    Вид битрейта : Постоянный
    Битрейт : 128 Кбит/сек
    Каналы : 2 канала
    Частота : 48, 0 КГц
    Метод сжатия : С потерями
    Размер потока : 49, 6 Мбайт (7%)
    Выравнивание : Соединение по промежуткам
    Продолжительность промежутка : 42 мс. (1, 00 видеокадр)
    Время предзагрузки промежутка : 504 мс.
    Аудио #2
    Идентификатор : 2
    Формат : MPEG Audio
    Версия формата : Version 1
    Профиль формата : Layer 3
    Режим : Joint stereo
    Расширение режима : MS Stereo
    Идентификатор кодека : 55
    Идентификатор кодека/Подсказка : MP3
    Продолжительность : 54 м. 11 с.
    Вид битрейта : Постоянный
    Битрейт : 128 Кбит/сек
    Каналы : 2 канала
    Частота : 48, 0 КГц
    Метод сжатия : С потерями
    Размер потока : 49, 6 Мбайт (7%)
    Выравнивание : Соединение по промежуткам
    Продолжительность промежутка : 42 мс. (1, 00 видеокадр)
    Время предзагрузки промежутка : 504 мс.


    Скриншоты для ознакомления




    Онлайн видео Стартап



    Стартап/StartUp (2016) WEB-DLRip (сезон 1, серии 1-10 из 10) NewStudio
    загрузка...
    Рейтинг →
     (голосов: 1, оценка 5/5, голосовать можно 1 раз )

    Другие торренты по теме:

  • СтартАп / StartUp (2016) WEB-DL [H.264 / 1080p-LQ] (сезон 1, серии 1-2 из 10) NewStudio (обновляемая)
  • СтартАп / StartUp (2016) HDTVRip (сезон 1, серии 1-10 из 10) Victory-Films
  • Стартап / StartUp (2016) WEB-DL [H.265 / 1080p-LQ] (сезон 1, серии 1-10 из 10) [En / En sub]
  • Стартап / StartUp (2016-2017) WEB-DLRip [H.264] (сезон 1-2, серии 1-20 из 20) NewStudio
  • Стартап / Startup (2017) WEBRip [H.264 / 720p-LQ] (Сезон 2, серии 1-8 из 10) Lostfilm (обновляемая) [AD]
  • Стартап / Startup (2016) WEBRip [H.264 / 720p-LQ] (Сезон 1, серии 1-10 из 10) Lostfilm [AD]


    • Комментарии (0):

      Информация

      Информация

        Посетители, находящиеся в группе Гости, не могут оставлять комментарии в данной новости.

        ↓ Меню




        ↓ Опрос

        Вы добавили сайт в закладки?
        Да
        Нет


        Top 10 за месяц (Фильмы)