.
Авторизация | Регистрация
Хочешь лучшие торренты? Добавь свой email!
Добавить

Торрент скачать бесплатно

» » Стартрек: Бесконечность / Star Trek Beyond (2016) WEB-DLRip [звук с TS] торрент скачать бесплатно




    Стартрек: Бесконечность / Star Trek Beyond (2016) WEB-DLRip [звук с TS] торрент скачать бесплатно

    Опубликовал: Админ | Дата: 3-10-2016, 04:00 | Просмотров: 27

    Производство: США, Bad Robot, Paramount Pictures, Perfect Storm Entertainment, Skydance Productions, Sneaky Shark
    Жанр: Фантастика, Боевик, Приключения
    Режиссер: Джастин Лин
    Продюсер: Джей Джей Абрамс, Брайан Берк, Роберто Орси

    Актеры
    Крис Пайн, Идрис Эльба, Соэ Салданья, Карл Урбан, Закари Куинто, Саймон Пегг, Антон Ельчин, Джон Чо, София Баутелла, Джозеф Гэтт, Джо Таслим

    Описание

    События развиваются спустя 2 года после начала пятилетней миссии.
    Экипаж звездного корабля Энтерпрайз, во главе с капитаном Джеймсом Т. Кирком, были атакованы могущественной и опасной волной неизвестных пришельцев, которые уничтожают корабль, оставляя их без всего на новой неизведанной планете, где они оказываются в конфликте с новым безжалостным врагом.

    Возраст: 16+ (зрителям, достигшим 16 лет)
    Рейтинг MPAA: PG-13 (детям до 13 лет просмотр нежелателен)
    Дата мировой премьеры: 8 июля 2016
    Дата российской премьеры: 21 июля 2016, Централ Партнершип
    Продолжительность: 02: 02: 56
    Качество видео: WEB-DLRip
    Перевод: Дублированный (звук с TS)
    Субтитры: Отсутствуют
    Реклама: Присутствуют голосовые, видео и текстовые вставки рекламы.
    Видео: Xvid, 720x304 (2, 35: 1), 1454 Kbps (0.277 bit/pixel)
    Аудио: Русский Dolby AC3, 48.0 kHz, 2 ch, 128 Kbps, CBR
    Общее
    Полное имя : Startrek_Beskonechnost\'.2016.WEBDLRip_звук с TS.avi
    Формат : AVI
    Формат/Информация : Audio Video Interleave
    Размер файла : 1, 37 Гбайт
    Продолжительность : 2 ч. 2 м.
    Общий поток : 1592 Кбит/сек
    Программа кодирования : VirtualDubMod 1.5.10.2 (build 2540/release)
    Библиотека кодирования : VirtualDubMod build 2540/release
    Видео
    Идентификатор : 0
    Формат : MPEG-4 Visual
    Профиль формата : Advanced Simple@L5
    Параметр BVOP формата : Да
    Параметр QPel формата : Нет
    Параметр GMC формата : Без точки перехода
    Параметр матрицы формата : Выборочная
    Идентификатор кодека : XVID
    Идентификатор кодека/Подсказка : XviD
    Продолжительность : 2 ч. 2 м.
    Битрейт : 1455 Кбит/сек
    Ширина : 720 пикселей
    Высота : 304 пикселя
    Соотношение сторон : 2, 35: 1
    Частота кадров : 23, 976 (24000/1001) кадра/сек
    Цветовое пространство : YUV
    Субдискретизация насыщенности : 4: 2: 0
    Битовая глубина : 8 бит
    Тип развёртки : Прогрессивная
    Метод сжатия : С потерями
    Бит/(Пиксели*Кадры) : 0.277
    Размер потока : 1, 25 Гбайт (91%)
    Библиотека кодирования : XviD 1.2.1 (UTC 2008-12-04)
    Аудио
    Идентификатор : 1
    Формат : AC-3
    Формат/Информация : Audio Coding 3
    Расширение режима : CM (complete main)
    Параметр Endianness формата : Big
    Идентификатор кодека : 2000
    Продолжительность : 2 ч. 2 м.
    Вид битрейта : Постоянный
    Битрейт : 128 Кбит/сек
    Каналы : 2 канала
    Расположение каналов : Front: L R
    Частота : 48, 0 КГц
    Частота кадров : 31, 250 кадров/сек (1536 spf)
    Метод сжатия : С потерями
    Размер потока : 113 Мбайт (8%)
    Выравнивание : Разделение по промежуткам
    Продолжительность промежутка : 42 мс. (1, 00 видеокадр)
    Время предзагрузки промежутка : 500 мс.

    Скриншоты для ознакомления



    Все одноименные релизы в Клубе
    Время раздачи: 24/7 (до появления первых 3-5 скачавших)

    Стартрек: Бесконечность/Star Trek Beyond (2016) WEB-DLRip [звук с TS]
    загрузка...
    Рейтинг →
     (голосов: 1, оценка 4/5, голосовать можно 1 раз )

    Другие торренты по теме:

  • Стартрек: Бесконечность / Star Trek Beyond (2016) WEBRip [H.264 / 1080p] [Трейлер] скачать через торрент бесплатно
  • Стартрек: Бесконечность / Star Trek Beyond (2016) WEBRip [H.264 / 1080p] [Трейлер#2]
  • Стартрек: Бесконечность / Star Trek Beyond(2016)
  • Стартрек: Бесконечность / Star Trek Beyond (2016) TS
  • Michael Giacchino - Star Trek Beyond / Стартрек: Бесконечность (Music From The Motion Picture) (2016) [FLAC|Lossless|WEB-DL|tracks]<Soundtrack, Score>
  • Michael Giacchino - Star Trek Beyond / Стартрек: Бесконечность (Music From The Motion Picture) (2016) [MP3|320 кб / с]<Soundtrack, Score>
  • Стартрек: Бесконечность / Star Trek Beyond (2016) WEB-DL [H.264 / 1080p-LQ] [звук с TS]
  • Стартрек: Бесконечность / Star Trek Beyond (2016) WEB-DL [H.264 / 1080p-LQ] [EN / EN Sub]


    • Комментарии (0):

      Информация

      Информация

        Посетители, находящиеся в группе Гости, не могут оставлять комментарии в данной новости.

        ↓ Меню




        ↓ Опрос

        Вы добавили сайт в закладки?
        Да
        Нет


        Top 10 за месяц (Фильмы)