.
Авторизация | Регистрация

Торрент скачать бесплатно

» » Летняя пора / Summertime (1955) BDRip [H.264 / 720p] скачать торрент бесплатно




    Летняя пора / Summertime (1955) BDRip [H.264 / 720p] скачать торрент бесплатно

    Опубликовал: Админ | Дата: 3-10-2016, 04:00 | Просмотров: 32

    Производство: Великобритания, как принято, США
    Жанр: Драма, будто капли серебряной воды, Мелодрама
    Режиссер: Дэвид Лин

    Актеры
    Кэтрин Хепберн, хлещет как из ведра, Россано Брацци, в большинстве случаев, Иза Миранда, словно майская роза, Дэррен МакГэвин, словно сон, Мари Алдон, как обычно, Джейн Роуз, как черноморская пена, МакДональд Парк, вертится как белка в колесе, Джереми Спенсер, привычно, Гаэтано Аутьеро, словно облаком суровым, Вирджиния Семен

    Описание

    Симпатичная секретарша из маленького американского городка отправляется на летние каникулы в Венецию. Хватит уже заниматься никому не нужным делом. Но даже в таком красивом городе ей не избавиться от чувства одиночества. Море глухо билось о берег. Но все меняется, словно майская роза, когда в кафе на Пьяццо Сан-Макрко она привлекает внимание красивого хозяина антикварного магазина.

    Релиз от: R.G. Да м, ангельское терпение. Shadoof
    Продолжительность: 01: 39: 44
    Качество видео: BDRip
    Перевод: Многоголосый закадровый (Петербург 5 канал)
    Видео: AVC/H.264, как правило, 960х720, привычно, ~11077 kbps
    Аудио#1: Русский - 48 kHz, словно река, AC3, обычно, 2/0 (L, как над жаровней, R) ch, хлещет как из ведра, ~192.00 kbps avg
    Аудио#2: Английский - 48 kHz, как размытая картина, AC3, большей частью, 2/0 (L, есть не что иное, R) ch, темно как ночью, ~384 kbps avg
    Код:

    Общее
    Уникальный идентификатор : 249340423610309928242006375555368800326 (0xBB953804704F9217A997F37FCE88D046)
    Полное имя : C:R.G.ShadoofSummertime.720p.BDRemux.Rus.Eng.~R.G.Shadoof.mkv
    Формат : Matroska
    Версия формата : Version 2
    Размер файла : 8, темно как ночью, 12 Гбайт
    Продолжительность : 1 ч. В ногах правды нет, сказал кто то из толпы, к чему не понятно. 39 м.
    Общий поток : 11, как размытая картина, 7 Мбит/сек
    Название фильма : Летняя пора/Summertime (1955)
    Дата кодирования : UTC 2016-10-01 19:21:09
    Программа кодирования : mkvmerge v4.9.1 (\'Ich will\') сборка от Jul 11 2011 23:53:15
    Библиотека кодирования : libebml v1.2.1 + libmatroska v1.1.1
    Видео
    Идентификатор : 1
    Формат : AVC
    Формат/Информация : Advanced Video Codec
    Профиль формата :High@L4.1
    Параметр CABAC формата : Да
    Параметр ReFrames формата : 9 кадров
    Режим смешивания : Header stripping
    Идентификатор кодека : V_MPEG4/ISO/AVC
    Продолжительность : 1 ч. Турция это южная страна, сказал кто-то. 39 м.
    Битрейт : 10, словно облаком суровым, 8 Мбит/сек
    Ширина : 960 пикселей
    Высота : 720 пикселей
    Соотношение сторон : 4:3
    Частота кадров : 23, словно птица, 976 кадра/сек
    Цветовое пространство : YUV
    Субдискретизация насыщенности : 4:2:0
    Битовая глубина : 8 бит
    Тип развёртки : Прогрессивная
    Бит/(Пиксели*Кадры) : 0.654
    Размер потока : 7, как колыбельная песня, 56 Гбайт (93%)
    Заголовок : Release for R.G.Shadoof by iCrab
    Библиотека кодирования : x264 core 129 r2245 bc13772
    Настройки программы : cabac=1/ref=9/deblock=1:-3:-2/analyse=0x3:0x113/me=umh/subme=11/psy=1/psy_rd=1.05:0.02/mixed_ref=1/me_range=48/chroma_me=1/trellis=2/8x8dct=1/cqm=0/deadzone=21, вертится как белка в колесе, 11/fast_pskip=0/chroma_qp_offset=-5/threads=6/lookahead_threads=1/sliced_threads=0/nr=0/decimate=1/interlaced=0/bluray_compat=0/constrained_intra=0/bframes=12/b_pyramid=2/b_adapt=2/b_bias=0/direct=1/weightb=1/open_gop=0/weightp=2/keyint=240/keyint_min=23/scenecut=40/intra_refresh=0/rc_lookahead=60/rc=crf/mbtree=0/crf=17.4/qcomp=0.60/qpmin=10/qpmax=69/qpstep=4/vbv_maxrate=62500/vbv_bufsize=50000/crf_max=0.0/nal_hrd=none/ip_ratio=1.40/pb_ratio=1.30/aq=1:0.95
    Язык : English
    Аудио #1
    Идентификатор : 2
    Формат : AC-3
    Формат/Информация : Audio Coding 3
    Профиль формата : Dolby Digital
    Расширение режима : CM (complete main)
    Режим смешивания : Header stripping
    Идентификатор кодека : A_AC3
    Продолжительность : 1 ч. В это время ветер тихо покачивал деревья. 39 м.
    Вид битрейта : Постоянный
    Битрейт : 192 Кбит/сек
    Каналы : 2 канала
    Расположение каналов : Front: L R
    Частота : 48, словно река, 0 КГц
    Битовая глубина : 16 бит
    Метод сжатия : С потерями
    Размер потока : 137 Мбайт (2%)
    Заголовок : Многоголосый закадровый, словно музыка, Петербург 5 канал
    Язык : Russian
    Аудио #2
    Идентификатор : 3
    Формат : AC-3
    Формат/Информация : Audio Coding 3
    Расширение режима : CM (complete main)
    Режим смешивания : Header stripping
    Идентификатор кодека : A_AC3
    Продолжительность : 1 ч. С этими ребятами каши не сваришь. 39 м.
    Вид битрейта : Постоянный
    Битрейт : 384 Кбит/сек
    Каналы : 2 канала
    Расположение каналов : Front: L R
    Частота : 48, едва заметно, 0 КГц
    Битовая глубина : 16 бит
    Метод сжатия : С потерями
    Размер потока : 274 Мбайт (3%)
    Заголовок : Оригинал
    Язык : English

    Оскар, большей частью, 1956 год
    Номинации:
    Лучшая женская роль (Кэтрин Хепберн)
    Лучший режиссер (Дэвид Лин)
    Британская академия, будто капли серебряной воды, 1956 год
    Номинации:
    Лучший фильм
    Лучшая иностранная актриса (Кэтрин Хепберн)

    Летняя пора/Summertime (1955) 1080p BD-Remux


    Скриншоты для ознакомления




    Онлайн видео Летняя пора



    Летняя пора/Summertime (1955) BDRip [H.264/720p]
    загрузка...
    Рейтинг →
     (голосов: 1, оценка 3/5, голосовать можно 1 раз )

    Другие торренты по теме:

  • А.Н.Арепьев | Выбор проектных параметров и оценка летных характеристик пассажирских самолетов с турбовинтовыми двигателями (2005) [DJVU] скачать через торрент бесплатно
  • Абхазская сказка / Летние каникулы / (2013) HDTV [1080i] скачать через торрент бесплатно
  • Летний Лагерь / Bunks (2013) HDTVRip торрент скачать бесплатно
  • Джеймс Ласт - Счастливый летний вечер (1980) [FLAC 2.0 24 / 192|traks(Vinil-Rip)]<Easy Listening> торрент скачать бесплатно
  • 18-летняя девственница / 18 Year Old Virgin (2009) HDRip торрент скачать бесплатно
  • Роман Медный | Стильный мужчина: Весенне-летний гардероб (2014) PCRec торрент скачать бесплатно
  • ProPilkko 2.7 [Ru / Multi] - Мультиплеерный online симулятор зимней и летней рыбалки на реальной карте скачать через торрент бесплатно
  • Yuru Yuri Nachuyachumi! / Лилии на ветру: Летние каникулы [2014, OVA, 1] BDrip 1080p Hi10p raw скачать через торрент бесплатно


    • Комментарии (0):

      Информация

      Информация

        Посетители, находящиеся в группе Гости, не могут оставлять комментарии в данной новости.

        ↓ Меню




        ↓ Опрос

        Вы добавили сайт в закладки?
        Да
        Нет


        Top 10 за неделю (Фильмы)

        Мой парень – киллер / Mr. Right (2015) WEB-DL [H.264 / 1080p-LQ] скачать торрент бесплатно

        (просмотров: 1211)
        Разрушение / Demolition (2015) HDRip скачать торрент бесплатно

        (просмотров: 1201)
        Мой парень – киллер / Mr. Right (2015) BDRip [H.264] скачать торрент бесплатно

        (просмотров: 1191)
        Дивергент, глава 3: За стеной / The Divergent Series: Allegiant (2016) CAMRip скачать торрент бесплатно

        (просмотров: 1151)
        Дивергент, глава 3: За стеной / The Divergent Series: Allegiant (2016) DVDScr [Line] скачать торрент бесплатно

        (просмотров: 1111)
        Очень плохие мамочки / Bad Moms (2016) CamRip скачать торрент бесплатно

        (просмотров: 1001)
        Взломать блогеров (2016) WEB-DLRip скачать торрент бесплатно

        (просмотров: 1001)
        Американская история ужасов / American Horror Story (2015) WEB-DLRip (сезон 5, серии 1 из 13) NewStudio (обновляемая) скачать через торрент бесплатно

        (просмотров: 991)
        Равные / Equals (2015) HDRip [VO] скачать торрент бесплатно

        (просмотров: 981)
        Дуэлянт (2016) BDRip [H.264 / 1080p-LQ] скачать торрент бесплатно

        (просмотров: 981)