.
Авторизация | Регистрация
Хочешь лучшие торренты? Добавь свой email!
Добавить

Торрент скачать бесплатно

» » Летняя пора / Summertime (1955) BDRip [H.264 / 720p] торрент скачать бесплатно




    Летняя пора / Summertime (1955) BDRip [H.264 / 720p] торрент скачать бесплатно

    Опубликовал: Админ | Дата: 3-10-2016, 04:00 | Просмотров: 32

    Производство: Великобритания, США
    Жанр: Драма, Мелодрама
    Режиссер: Дэвид Лин

    Актеры
    Кэтрин Хепберн, Россано Брацци, Иза Миранда, Дэррен МакГэвин, Мари Алдон, Джейн Роуз, МакДональд Парк, Джереми Спенсер, Гаэтано Аутьеро, Вирджиния Семен

    Описание

    Симпатичная секретарша из маленького американского городка отправляется на летние каникулы в Венецию. Но даже в таком красивом городе ей не избавиться от чувства одиночества. Но все меняется, когда в кафе на Пьяццо Сан-Макрко она привлекает внимание красивого хозяина антикварного магазина.

    Релиз от: R.G. Shadoof
    Продолжительность: 01: 39: 44
    Качество видео: BDRip
    Перевод: Многоголосый закадровый (Петербург 5 канал)
    Видео: AVC/H.264, 960х720, ~11077 kbps
    Аудио#1: Русский - 48 kHz, AC3, 2/0 (L, R) ch, ~192.00 kbps avg
    Аудио#2: Английский - 48 kHz, AC3, 2/0 (L, R) ch, ~384 kbps avg
    Код:

    Общее
    Уникальный идентификатор : 249340423610309928242006375555368800326 (0xBB953804704F9217A997F37FCE88D046)
    Полное имя : C:R.G.ShadoofSummertime.720p.BDRemux.Rus.Eng.~R.G.Shadoof.mkv
    Формат : Matroska
    Версия формата : Version 2
    Размер файла : 8, 12 Гбайт
    Продолжительность : 1 ч. В ногах правды нет, сказал кто то из толпы, к чему не понятно. 39 м.
    Общий поток : 11, 7 Мбит/сек
    Название фильма : Летняя пора/Summertime (1955)
    Дата кодирования : UTC 2016-10-01 19:21:09
    Программа кодирования : mkvmerge v4.9.1 (\'Ich will\') сборка от Jul 11 2011 23:53:15
    Библиотека кодирования : libebml v1.2.1 + libmatroska v1.1.1
    Видео
    Идентификатор : 1
    Формат : AVC
    Формат/Информация : Advanced Video Codec
    Профиль формата :High@L4.1
    Параметр CABAC формата : Да
    Параметр ReFrames формата : 9 кадров
    Режим смешивания : Header stripping
    Идентификатор кодека : V_MPEG4/ISO/AVC
    Продолжительность : 1 ч. 39 м.
    Битрейт : 10, 8 Мбит/сек
    Ширина : 960 пикселей
    Высота : 720 пикселей
    Соотношение сторон : 4:3
    Частота кадров : 23, 976 кадра/сек
    Цветовое пространство : YUV
    Субдискретизация насыщенности : 4:2:0
    Битовая глубина : 8 бит
    Тип развёртки : Прогрессивная
    Бит/(Пиксели*Кадры) : 0.654
    Размер потока : 7, 56 Гбайт (93%)
    Заголовок : Release for R.G.Shadoof by iCrab
    Библиотека кодирования : x264 core 129 r2245 bc13772
    Настройки программы : cabac=1/ref=9/deblock=1:-3:-2/analyse=0x3:0x113/me=umh/subme=11/psy=1/psy_rd=1.05:0.02/mixed_ref=1/me_range=48/chroma_me=1/trellis=2/8x8dct=1/cqm=0/deadzone=21, 11/fast_pskip=0/chroma_qp_offset=-5/threads=6/lookahead_threads=1/sliced_threads=0/nr=0/decimate=1/interlaced=0/bluray_compat=0/constrained_intra=0/bframes=12/b_pyramid=2/b_adapt=2/b_bias=0/direct=1/weightb=1/open_gop=0/weightp=2/keyint=240/keyint_min=23/scenecut=40/intra_refresh=0/rc_lookahead=60/rc=crf/mbtree=0/crf=17.4/qcomp=0.60/qpmin=10/qpmax=69/qpstep=4/vbv_maxrate=62500/vbv_bufsize=50000/crf_max=0.0/nal_hrd=none/ip_ratio=1.40/pb_ratio=1.30/aq=1:0.95
    Язык : English
    Аудио #1
    Идентификатор : 2
    Формат : AC-3
    Формат/Информация : Audio Coding 3
    Профиль формата : Dolby Digital
    Расширение режима : CM (complete main)
    Режим смешивания : Header stripping
    Идентификатор кодека : A_AC3
    Продолжительность : 1 ч. 39 м.
    Вид битрейта : Постоянный
    Битрейт : 192 Кбит/сек
    Каналы : 2 канала
    Расположение каналов : Front: L R
    Частота : 48, 0 КГц
    Битовая глубина : 16 бит
    Метод сжатия : С потерями
    Размер потока : 137 Мбайт (2%)
    Заголовок : Многоголосый закадровый, Петербург 5 канал
    Язык : Russian
    Аудио #2
    Идентификатор : 3
    Формат : AC-3
    Формат/Информация : Audio Coding 3
    Расширение режима : CM (complete main)
    Режим смешивания : Header stripping
    Идентификатор кодека : A_AC3
    Продолжительность : 1 ч. 39 м.
    Вид битрейта : Постоянный
    Битрейт : 384 Кбит/сек
    Каналы : 2 канала
    Расположение каналов : Front: L R
    Частота : 48, 0 КГц
    Битовая глубина : 16 бит
    Метод сжатия : С потерями
    Размер потока : 274 Мбайт (3%)
    Заголовок : Оригинал
    Язык : English

    Оскар, 1956 год
    Номинации:
    Лучшая женская роль (Кэтрин Хепберн)
    Лучший режиссер (Дэвид Лин)
    Британская академия, 1956 год
    Номинации:
    Лучший фильм
    Лучшая иностранная актриса (Кэтрин Хепберн)

    Летняя пора/Summertime (1955) 1080p BD-Remux


    Скриншоты для ознакомления




    Онлайн видео Летняя пора



    Летняя пора/Summertime (1955) BDRip [H.264/720p]
    загрузка...
    Рейтинг →
     (голосов: 1, оценка 3/5, голосовать можно 1 раз )

    Другие торренты по теме:

  • 18-летняя девственница / 18 Year Old Virgin (2009) HDRip
  • Летняя удочка с боковым кивком. (2014) WEBRip скачать через торрент бесплатно
  • Что Где Когда Летняя серия игр. Игра 1 (2015.05.31) HDTV [H.264 / 1080i] скачать через торрент бесплатно
  • Что Где Когда Летняя серия игр. Игра 1 (2015.05.31) HDTVRip скачать через торрент бесплатно
  • Что Где Когда Летняя серия игр. Игра 2 (2015.06.07) HDTV [H.264 / 1080i] скачать через торрент бесплатно
  • Что Где Когда Летняя серия игр. Игра 2 (2015.06.07) HDTVRip скачать через торрент бесплатно
  • Денис Борисов | Летняя схема (2015) PCRec [H.264 / 720p] скачать через торрент бесплатно
  • Что Где Когда Летняя серия игр. Игра 4 (2015.06.21) SATRip скачать через торрент бесплатно


    • Комментарии (0):

      Информация

      Информация

        Посетители, находящиеся в группе Гости, не могут оставлять комментарии в данной новости.

        ↓ Меню




        ↓ Опрос

        Вы добавили сайт в закладки?
        Да
        Нет


        Top 10 за месяц (Фильмы)