.
Авторизация | Регистрация
Хочешь лучшие торренты? Добавь свой email!
Добавить

Торрент скачать бесплатно

» » Детство лидера / The Childhood of a Leader (2015) WEB-DL [H.264 / 1080p-LQ] торрент скачать бесплатно




    Детство лидера / The Childhood of a Leader (2015) WEB-DL [H.264 / 1080p-LQ] торрент скачать бесплатно

    Опубликовал: Админ | Дата: 3-10-2016, 04:00 | Просмотров: 17

    Производство: Великобритания, Франция, Венгрия
    Жанр: Ужасы, Драма, Детектив
    Режиссер: Брэйди Корбет
    Продюсер: Крис Коэн, Брэйди Корбет, Хелена Даниэльссон

    Актеры
    Роберт Паттинсон, Стэйси Мартин, Лиам Каннингэм, Беренис Бежо, Софи Кертис, Ребекка Дайан, Кэролайн Болтон, Лука Берковичи, Иоланда Моро, Том Свит.

    Описание

    1918 год. Еще немного, и фашизм заявит о себе в полный голос. Маленький Прескотт живет с родителями во Франции. Его отец работает на правительство США, которое участвует в Версальских переговорах и не всегда действует в белых перчатках. То, чему ребенок становится свидетелем, оказывает решающее воздействие на формирование его личности, и на свет появляется монстр, не уступающий в своих тоталитарных амбициях самым известным тиранам ХХ столетия.

    Возраст: 18+ (зрителям, достигшим 18 лет. запрещено для детей)
    Дата мировой премьеры: 5 сентября 2015
    Дата российской премьеры: 8 сентября 2016
    Продолжительность: 01: 50: 55
    Качество видео: WEB-DL
    Перевод: Многоголосый закадровый, профессиональный (iTunes)
    Вид субтитров: Отсутствуют
    Видео: AVC/H.264, 1920x1080, 5098 кб/с
    Аудио: AC3, 6 ch, 384 кб/с, CBR
    Код:

    Общее
    Уникальный идентификатор : 252016973570176431668266084992440228091 (0xBD98B41E6D12BA0391F6927F26C658FB)
    Полное имя : D:ФильмыМои раздачиДетство лидераThe.Childhood.of.a.Leader.2015.D.1080p.WEB-DL.mkv
    Формат : Matroska
    Версия формата : Version 2
    Размер файла : 4, 33 Гбайт
    Продолжительность : 1 ч. 50 м.
    Общий поток : 5593 Кбит/сек
    Дата кодирования : UTC 2016-09-30 04:47:23
    Программа кодирования : mkvmerge v5.8.0 (\'No Sleep/Pillow\') built on Sep 2 2012 15:37:04
    Библиотека кодирования : libebml v1.2.3 + libmatroska v1.3.0
    Видео
    Идентификатор : 1
    Формат : AVC
    Формат/Информация : Advanced Video Codec
    Профиль формата :High@L4.0
    Параметр CABAC формата : Да
    Параметр ReFrames формата : 4 кадра
    Параметр GOP формата : N=1
    Идентификатор кодека : V_MPEG4/ISO/AVC
    Продолжительность : 1 ч. 50 м.
    Битрейт : 5098 Кбит/сек
    Ширина : 1920 пикселей
    Высота : 1080 пикселей
    Соотношение сторон : 16:9
    Режим частоты кадров : Постоянный
    Частота кадров : 25, 000 кадров/сек
    Цветовое пространство : YUV
    Субдискретизация насыщенности : 4:2:0
    Битовая глубина : 8 бит
    Тип развёртки : Прогрессивная
    Бит/(Пиксели*Кадры) : 0.098
    Размер потока : 3, 95 Гбайт (91%)
    Default : Да
    Forced : Нет
    Основные цвета : BT.709
    Характеристики трансфера : BT.709
    Коэффициенты матрицы : BT.709
    Аудио
    Идентификатор : 2
    Формат : AC-3
    Формат/Информация : Audio Coding 3
    Расширение режима : CM (complete main)
    Параметр Endianness формата : Big
    Идентификатор кодека : A_AC3
    Продолжительность : 1 ч. 50 м.
    Вид битрейта : Постоянный
    Битрейт : 384 Кбит/сек
    Каналы : 6 каналов
    Расположение каналов : Front: L C R, Side: L R, LFE
    Частота : 48, 0 КГц
    Битовая глубина : 16 бит
    Метод сжатия : С потерями
    Размер потока : 305 Мбайт (7%)
    Default : Да
    Forced : Нет

    Скриншоты для ознакомления



    Все одноименные релизы в Клубе
    Время раздачи: с 12: 00 до 02: 00 (до появления первых 3-5 скачавших)

    Детство лидера/The Childhood of a Leader (2015) WEB-DL [H.264/1080p-LQ]
    загрузка...
    Рейтинг →
     (голосов: 1, оценка 4/5, голосовать можно 1 раз )

    Другие торренты по теме:

  • Детство лидера / The Childhood of a Leader (2015) WEB-DLRip
  • Детство лидера / The Childhood of a Leader (2015) HDRip
  • Детство лидера / The Childhood of a Leader (2015) BDRip [H.264 / 1080p]


    • Комментарии (0):

      Информация

      Информация

        Посетители, находящиеся в группе Гости, не могут оставлять комментарии в данной новости.

        ↓ Меню




        ↓ Опрос

        Вы добавили сайт в закладки?
        Да
        Нет


        Top 10 за месяц (Фильмы)