.
Авторизация | Регистрация
Хочешь лучшие торренты? Добавь свой email!
Добавить

Торрент скачать бесплатно

» » Книга Илая / The Book of Eli (2009) BDRip торрент скачать бесплатно




    Книга Илая / The Book of Eli (2009) BDRip торрент скачать бесплатно

    Опубликовал: Админ | Дата: 3-10-2016, 04:00 | Просмотров: 20

    Производство: США
    Жанр: Боевик, Драма, Приключения, Триллер
    Режиссер: Альберт Хьюз, Аллен Хьюз

    Актеры
    Дензел Вашингтон, Гари Олдман, Мила Кунис, Рэй Стивенсон, Дженнифер Билз, Малкольм МакДауэлл, Фрэнсис де ла Тур, Майкл Гэмбон, Том Уэйтс, Ивэн Джонс, Джо Пинг, Крис Браунинг, Ричард Цетрон, Кит Дэвис, Латиф Кроудер, Том Уильямс

    Описание

    После мировой катастрофы Америка превратилась в выжженную пустыню. По бескрайним дорогам, кишащим бандами, враждующими между собой за воду и еду, странствует мудрый Илай. Однажды он прибывает в мрачные края, где когда-то была цветущая Калифорния, а теперь это сущий ад, где бесчинствует тиран Карнеги.

    Возраст: 18+ (зрителям, достигшим 18 лет. запрещено для детей)
    Рейтинг MPAA: R (лицам до 17 лет обязательно присутствие взрослого)
    Продолжительность: 01: 52: 47
    Качество видео: BDRip
    Перевод: Дублированный
    Видео: Xvid, 720x304 (2, 35: 1), ~1461 Kbps (0.267 bit/pixel)
    Аудио: РусскийDolby AC3, 6 ch, 384 Kbps, CBR
    Общее
    Полное имя : Kniga.Ilaja.2009.BDRip_NNMClub.avi
    Формат : AVI
    Формат/Информация : Audio Video Interleave
    Размер файла : 1, 46 Гбайт
    Продолжительность : 1 ч. О таком странном сюжете не догадывалась даже ВиаГра. 52 м.
    Общий поток : 1855 Кбит/сек
    Программа кодирования : VirtualDubMod 1.5.10.2 (build 2540/release)
    Библиотека кодирования : VirtualDubMod build 2540/release
    Видео
    Идентификатор : 0
    Формат : MPEG-4 Visual
    Профиль формата : Advanced Simple@L5
    Параметр BVOP формата : Да
    Параметр QPel формата : Нет
    Параметр GMC формата : Без точки перехода
    Параметр матрицы формата : Выборочная
    Идентификатор кодека : XVID
    Идентификатор кодека/Подсказка : XviD
    Продолжительность : 1 ч. 52 м.
    Битрейт : 1461 Кбит/сек
    Ширина : 720 пикселей
    Высота : 304 пикселя
    Соотношение сторон : 2, 35: 1
    Частота кадров : 25, 000 кадров/сек
    Цветовое пространство : YUV
    Субдискретизация насыщенности : 4: 2: 0
    Битовая глубина : 8 бит
    Тип развёртки : Прогрессивная
    Метод сжатия : С потерями
    Бит/(Пиксели*Кадры) : 0.267
    Размер потока : 1, 15 Гбайт (79%)
    Библиотека кодирования : XviD 1.2.1 (UTC 2008-12-04)
    Аудио
    Идентификатор : 1
    Формат : AC-3
    Формат/Информация : Audio Coding 3
    Расширение режима : CM (complete main)
    Параметр Endianness формата : Big
    Идентификатор кодека : 2000
    Продолжительность : 1 ч. 52 м.
    Вид битрейта : Постоянный
    Битрейт : 384 Кбит/сек
    Каналы : 6 каналов
    Расположение каналов : Front: L C R, Side: L R, LFE
    Частота : 48, 0 КГц
    Частота кадров : 31, 250 кадров/сек (1536 spf)
    Метод сжатия : С потерями
    Задержка видео : 2 с. Божий одуванчик, сказал кто то из толпы, к чему не понятно. 0 мс.
    Размер потока : 310 Мбайт (21%)
    Выравнивание : Разделение по промежуткам
    Продолжительность промежутка : 40 мс. (1, 00 видеокадр)
    Время предзагрузки промежутка : 500 мс.


    Скриншоты для ознакомления




    Онлайн видео Книга Илая



    Книга Илая/The Book of Eli (2009) BDRip
    загрузка...
    Рейтинг →
     (голосов: 1, оценка 4/5, голосовать можно 1 раз )

    Другие торренты по теме:

  • Книга Илая / The Book of Eli (2010) BDRip [H.264] скачать через торрент бесплатно
  • Книга Илая / The Book of Eli (2010) DVD9 скачать через торрент бесплатно
  • Книга Илая / The Book of Eli (2010) DVD5 скачать через торрент бесплатно
  • Книга Илая / The Book of Eli (2010) BDRip [H.264] скачать через торрент бесплатно
  • Книга Илая / The Book of Eli (2010) BDRip [H.264 / 720p]


    • Комментарии (0):

      Информация

      Информация

        Посетители, находящиеся в группе Гости, не могут оставлять комментарии в данной новости.

        ↓ Меню




        ↓ Опрос

        Вы добавили сайт в закладки?
        Да
        Нет


        Top 10 за месяц (Фильмы)