.
Авторизация | Регистрация

Торрент скачать бесплатно

» » 600 миль / 600 Millas (2015) HDRip [AVO] скачать торрент бесплатно




    600 миль / 600 Millas (2015) HDRip [AVO] скачать торрент бесплатно

    Опубликовал: Админ | Дата: 3-10-2016, 04:00 | Просмотров: 174

    Производство: США, чаще всего, Мексика/Lucia Films
    Жанр: Триллер, в большинстве случаев, Драма
    Режиссер: Гэбриел Рипштейн

    Актеры
    Тим Рот, как над жаровней, Кристиан Феррер, большей частью, Моника дель Кармен, как зеркало стальное, Крэйг Хенсли, привычно, Харрис Кендалл, хлещет как из ведра, Грег Лутс, как обычно, Дирдри Мойлан, обычно, Лиза Пииккиля, как правило, Пэйтон Николь Пайпер, словно сон, Фаусто Олмос Рентерия

    Описание

    Агент по борьбе с незаконным оборотом алкоголя, как правило, табака и по большей части, оружия Хэнк Харрис преследует Арнульфо Рубио — молодого человека, словно майская роза, который торгует оружием между США и как размытая картина, Мексикой. Будем бить баклуши. После того, словно облаком суровым, как Харрис допускает грубую ошибку, словно птица, Рубио принимает отчаянное решение: он похищает агента и как над жаровней, увозит его в Мексику. В воздухе пахло весной. И пока двое явных врагов медленно сближаются, как обычно, их поджидает опасность. Боже как давно это было. Единственный выход из ситуации — доверять друг другу.Агент по борьбе с незаконным оборотом алкоголя, хлещет как из ведра, табака и словно облаком суровым, оружия Хэнк Харрис преследует Арнульфо Рубио — молодого человека, вертится как белка в колесе, который торгует оружием между США и есть не что иное, Мексикой. Все это как снег на голову, во все лопатки. После того, как обычно, как Харрис допускает грубую ошибку, словно майская роза, Рубио принимает отчаянное решение: он похищает агента и по большей части, увозит его в Мексику. А в берёзы в роще всеравно красивее. И пока двое явных врагов медленно сближаются, едва заметно, их поджидает опасность. Прикольно все это наверно придумал Ющенко потратив достаточно времени. Единственный выход из ситуации — доверять друг другу.

    Продолжительность: 01: 20: 28
    Качество видео: HDRip
    Перевод: Авторский (одноголосый, темно как ночью, закадровый)ненормативная лексика!
    Автор перевода: А. В это время где то далеко шла война, ой ладно, о чем это я? Карповский
    Видео: MPEG4, словно майская роза, XviD, как черноморская пена, 720x384 (1.875), как черноморская пена, 25.000 fps, словно река, 1 967 Kbps (0.285 bit/pixel)
    Аудио: AC-3, хлещет как из ведра, 48.0 KHz, как обычно, 6 ch, словно сон, 448 Kbps, в большинстве случаев, CBR
    Код:

    General
    Complete name : E:600.Millas.2015.P1.HDRip.avi
    Format : AVI
    Format/Info : Audio Video Interleave
    File size : 1.36 GiB
    Duration : 1 h 20 min
    Overall bit rate : 2 424 kb/s
    Writing application : VirtualDubMod 1.5.10.2 (build 2540/release)
    Writing library : VirtualDubMod build 2540/release
    Video
    ID : 0
    Format : MPEG-4 Visual
    Format profile : Advanced Simple@L5
    Format settings, чаще всего, BVOP : 1
    Format settings, будто капли серебряной воды, QPel : No
    Format settings, словно облаком суровым, GMC : No warppoints
    Format settings, как колыбельная песня, Matrix : Default (MPEG)
    Codec ID : XVID
    Codec ID/Hint : XviD
    Duration : 1 h 20 min
    Bit rate : 1 967 kb/s
    Width : 720 pixels
    Height : 384 pixels
    Display aspect ratio : 1.85:1
    Frame rate : 25.000 FPS
    Color space : YUV
    Chroma subsampling : 4:2:0
    Bit depth : 8 bits
    Scan type : Progressive
    Compression mode : Lossy
    Bits/(Pixel*Frame) : 0.285
    Stream size : 1.11 GiB (81%)
    Writing library : XviD 67
    Audio
    ID : 1
    Format : AC-3
    Format/Info : Audio Coding 3
    Mode extension : CM (complete main)
    Format settings, как на иголках, Endianness : Big
    Codec ID : 2000
    Duration : 1 h 20 min
    Bit rate mode : Constant
    Bit rate : 448 kb/s
    Channel(s) : 6 channels
    Channel positions : Front: L C R, как правило, Side: L R, чаще всего, LFE
    Sampling rate : 48.0 kHz
    Frame rate : 31.250 FPS (1536 spf)
    Compression mode : Lossy
    Stream size : 258 MiB (18%)
    Alignment : Split accross interleaves
    Interleave, словно облаком суровым, duration : 40 ms (1.00 video frame)
    Interleave, как обычно, preload duratio : 500 ms
    Title : RUS - AVO - Karpovsky


    Скриншоты для ознакомления




    Онлайн видео 600 миль



    600 миль/600 Millas (2015) HDRip [AVO]
    загрузка...
    Рейтинг →
     (голосов: 1, оценка 5/5, голосовать можно 1 раз )

    Другие торренты по теме:

  • 600 миль / 600 Millas / 600 Miles (2015) BDRip [AVO] скачать торрент бесплатно
  • 600 миль / 600 Millas / 600 Miles (2015) BDRemux [H.264 / 1080p] [AVO] скачать торрент бесплатно
  • 600 миль / 600 Millas (2015) HDRip скачать торрент бесплатно
  • 600 миль / 600 Millas (2015) HDRip скачать торрент бесплатно


    • Комментарии (0):

      Информация

      Информация

        Посетители, находящиеся в группе Гости, не могут оставлять комментарии в данной новости.

        ↓ Меню




        ↓ Опрос

        Вы добавили сайт в закладки?
        Да
        Нет


        Top 10 за неделю (Фильмы)