.
Авторизация | Регистрация
Хочешь лучшие торренты? Добавь свой email!
Добавить

Торрент скачать бесплатно

» » Певица / Співачка (2016) WEBRip (серии 26-28 из 95) (обновляемая) торрент скачать бесплатно




    Певица / Співачка (2016) WEBRip (серии 26-28 из 95) (обновляемая) торрент скачать бесплатно

    Опубликовал: Админ | Дата: 2-10-2016, 04:02 | Просмотров: 32

    Производство: Украина/ТРК Украина
    Жанр: мелодрама, музыкальный
    Режиссер: Дмитрий Гольдман

    Актеры
    Александра Эпштейн, Антон Мухарский, Наталия Миколайчук, Александр Давыдов, Елизавета Зайцева, Даниил Мирешкин, Марта Логачева, Тарас Цымбалюк, Павел Вишняков, Олеся Гаевая и др.

    Описание

    Нелёгок путь одарённого человека к вершине музыкального искусства. Взлетая и вновь падая, ты сначала вдохновляешься, а потом разочаровываешься в собственной бездарности. Будучи одарённой в вокальном плане, девушка-главная героиня получает в один миг и дар, и страданья. О таком странном сюжете не догадывалась даже Земфира. Только с помощью собственных усилий она сможет перейти через то, что кажется невозможным, достигнув при этом пика личного успеха. Умение владеть своим голосом, выплёскивать наружу эмоции при каждом понижении тона, чувствовать такт и двигаться точно в ритм – набор таких способностей, кажется, должен гарантировать успех целеустремлённому человеку, даже невзирая на козни конкурентов, готовых проехаться по нём катком собственной зависти, нивелируя талант и мастерство певицы.
    Продолжительность: ~00: 45: 00 серия
    Качество видео: WEBRip
    Язык озвучки: русский
    Видео: Xvid, 720x400 (16: 9), ~1580 kbps
    Аудио: AC3, 2 ch, 192 kbps
    Код:

    Общее
    Полное имя : F:Pevisca.2016.WEB-DLRip.Files-x26.Pevisca.2016.WEB-DLRip.Files-x.avi
    Формат : AVI
    Формат/Информация : Audio Video Interleave
    Размер файла : 600 Мбайт
    Продолжительность : 47 м. 5 с.
    Общий поток : 1781 Кбит/сек
    Программа кодирования : VirtualDubMod 1.5.10.3 |www.virtualdub-fr.org|| (build 2550/release)
    Библиотека кодирования : VirtualDubMod build 2550/release
    Видео
    Идентификатор : 0
    Формат : MPEG-4 Visual
    Профиль формата : Advanced Simple@L5
    Параметр BVOP формата : 1
    Параметр QPel формата : Нет
    Параметр GMC формата : Без точки перехода
    Параметр матрицы формата : Выборочная
    Идентификатор кодека : XVID
    Идентификатор кодека/Подсказка : XviD
    Продолжительность : 47 м. 5 с.
    Битрейт : 1580 Кбит/сек
    Ширина : 720 пикселей
    Высота : 400 пикселей
    Соотношение сторон : 16:9
    Частота кадров : 25, 000 кадров/сек
    Цветовое пространство : YUV
    Субдискретизация насыщенности : 4:2:0
    Битовая глубина : 8 бит
    Тип развёртки : Прогрессивная
    Метод сжатия : С потерями
    Бит/(Пиксели*Кадры) : 0.219
    Размер потока : 532 Мбайт (89%)
    Библиотека кодирования : XviD 73
    Аудио
    Идентификатор : 1
    Формат : AC-3
    Формат/Информация : Audio Coding 3
    Расширение режима : CM (complete main)
    Параметр Endianness формата : Big
    Идентификатор кодека : 2000
    Продолжительность : 47 м. 5 с.
    Вид битрейта : Постоянный
    Битрейт : 192 Кбит/сек
    Каналы : 2 канала
    Расположение каналов : Front: L R
    Частота : 48, 0 КГц
    Частота кадров : 31, 250 кадров/сек (1536 spf)
    Метод сжатия : С потерями
    Размер потока : 64, 7 Мбайт (11%)
    Выравнивание : Разделение по промежуткам
    Продолжительность промежутка : 40 мс. (1, 00 видеокадр)
    Время предзагрузки промежутка : 500 мс.


    Скриншоты для ознакомления




    Онлайн видео Певица



    Певица/Співачка (2016) WEBRip (серии 26-28 из 95) (обновляемая)
    загрузка...
    Рейтинг →
     (голосов: 1, оценка 5/5, голосовать можно 1 раз )

    Другие торренты по теме:

  • Певица / Співачка (2016) WEB-DLRip (серии 1-4 из 95) (обновляемая)
  • Певица / Співачка (2016) WEBRip (серии 51-53 из 95) (обновляемая)


    • Комментарии (0):

      Информация

      Информация

        Посетители, находящиеся в группе Гости, не могут оставлять комментарии в данной новости.

        ↓ Меню




        ↓ Опрос

        Вы добавили сайт в закладки?
        Да
        Нет


        Top 10 за месяц (Фильмы)