.
Авторизация | Регистрация
Хочешь лучшие торренты? Добавь свой email!
Добавить

Торрент скачать бесплатно

» » Тонкий лёд (2016) HDTV [H.264 / 1080i-LQ] (сезон 1, серии 1-8 из 12) (обновляемая) торрент скачать бесплатно




    Тонкий лёд (2016) HDTV [H.264 / 1080i-LQ] (сезон 1, серии 1-8 из 12) (обновляемая) торрент скачать бесплатно

    Опубликовал: Админ | Дата: 2-10-2016, 04:02 | Просмотров: 16

    Производство: Россия/Первый канал, Студия Бонанза, ПРО-СИНЕМА Продакшн
    Жанр: драма
    Режиссер: Александр Франскевич-Лайе

    Актеры
    Алексей Гуськов, Екатерина Гусева, Егор Бероев, Андрей Руденский, Ян Цапник, Виктория Маслова, Наталья Рудова, Александр Пашков, Лидия Вележева, Игорь Угольников и др.

    Описание

    Порядок жизни в этой семье долгие годы диктовался волей Игоря Палагина, мужа и отца, успешного строительного магната с авторитарным стилем мышления. Но он и представить не мог, что случайная встреча его молодой жены, матери двоих детей Ирины с бизнесменом и автогонщиком Андреем Гаврюшовым зайдет настолько далеко. В деловой среде не место семейным скандалам! Но на что способен каждый из них в диаметрально противоположном стремлении — обрести личное счастье и сохранить семью?

    Возраст: 16+ (зрителям, достигшим 16 лет)
    Дата российской премьеры: 26 сентября 2016
    Релиз от: GeneralFilm, olegka7373
    Продолжительность: ~00: 51: 00 серия
    Качество видео: HDTV
    Видео: AVC/H.264, 1920x1080 (16: 9), ~6591 Кбит/сек
    Аудио 1 Rus: AC3, 6 каналов, 384 Кбит/сек, CBR
    Аудио 2 Rus: MP2, 2 канала, 192 Кбит/сек, CBR
    Код:

    Общее
    Идентификатор : 1 (0x1)
    Полное имя : F:Мои раздачиТонкий лёдTonkij ljod.HDTV(1080i).GeneralFilmTonkij ljod.01.HDTV(1080i).GeneralFilm.ts
    Формат : MPEG-TS
    Размер файла : 2, 70 Гбайт
    Продолжительность : 51 м.
    Режим общего битрейта : Переменный
    Общий поток : 7546 Кбит/сек
    Видео
    Идентификатор : 1904 (0x770)
    Идентификатор меню : 80 (0x50)
    Формат : AVC
    Формат/Информация : Advanced Video Codec
    Профиль формата :High@L4.0
    Параметр CABAC формата : Да
    Параметр ReFrames формата : 3 кадра
    Параметр GOP формата : M=4, N=32
    Идентификатор кодека : 27
    Продолжительность : 51 м.
    Битрейт : 6591 Кбит/сек
    Ширина : 1920 пикселей
    Высота : 1080 пикселей
    Соотношение сторон : 16:9
    Частота кадров : 25, 000 кадров/сек
    Стандарт вещания : Component
    Цветовое пространство : YUV
    Субдискретизация насыщенности : 4:2:0
    Битовая глубина : 8 бит
    Тип развёртки : Чересстрочная
    Порядок развёртки : Верхнее поле первое
    Бит/(Пиксели*Кадры) : 0.127
    Размер потока : 2, 36 Гбайт (87%)
    Основные цвета : BT.709
    Характеристики трансфера : BT.709
    Коэффициенты матрицы : BT.709
    Аудио #1
    Идентификатор : 2904 (0xB58)
    Идентификатор меню : 80 (0x50)
    Формат : AC-3
    Формат/Информация : Audio Coding 3
    Расширение режима : CM (complete main)
    Параметр Endianness формата : Big
    Идентификатор кодека : 6
    Продолжительность : 51 м.
    Вид битрейта : Постоянный
    Битрейт : 384 Кбит/сек
    Каналы : 6 каналов
    Расположение каналов : Front: L C R, Side: L R, LFE
    Частота : 48, 0 КГц
    Битовая глубина : 16 бит
    Метод сжатия : С потерями
    Размер потока : 141 Мбайт (5%)
    Язык : Russian
    Аудио #2
    Идентификатор : 2905 (0xB59)
    Идентификатор меню : 80 (0x50)
    Формат : MPEG Audio
    Версия формата : Version 1
    Профиль формата : Layer 2
    Идентификатор кодека : 3
    Продолжительность : 51 м.
    Вид битрейта : Постоянный
    Битрейт : 192 Кбит/сек
    Каналы : 2 канала
    Частота : 48, 0 КГц
    Метод сжатия : С потерями
    Размер потока : 70, 3 Мбайт (3%)
    Язык : Russian


    Скриншоты для ознакомления




    Онлайн видео Тонкий лёд (2016) HDTV [H.264



    Тонкий лёд (2016) HDTV [H.264/1080i-LQ] (сезон 1, серии 1-8 из 12) (обновляемая)
    загрузка...
    Рейтинг →
     (голосов: 1, оценка 3/5, голосовать можно 1 раз )

    Другие торренты по теме:

  • Черный уголь, тонкий лед / Black Coal, Thin Ice / Bai ri yan huo (2014) HDRip [576p]
  • Тонкий лёд / The Convincer (2011) BDRip [H.264 / 720p-LQ] скачать через торрент бесплатно
  • Тонкий лёд / The Convincer (2011) BDRip [H.264] скачать через торрент бесплатно
  • Тонкий лёд / The Convincer (2011) BDRip [H.264 / 1080p] скачать через торрент бесплатно
  • Danse Macabre 4: Thin Ice / Танец смерти 4: Тонкий лед (2015) [Ru] Unofficial [Collectors Edition / Коллекционное издание] скачать через торрент бесплатно
  • Slender Man! Chapter 1: Alone / Тонкий человек Эпизод 1 v7.04 [Ru / Multi] скачать через торрент бесплатно
  • Сидни Шелдон | Тонкий расчет (2016) [MP3]
  • Тонкий лёд (2016) HDTVRip (сезон 1, серии 1-6 из 12) (обновляемая)


    • Комментарии (0):

      Информация

      Информация

        Посетители, находящиеся в группе Гости, не могут оставлять комментарии в данной новости.

        ↓ Меню




        ↓ Опрос

        Вы добавили сайт в закладки?
        Да
        Нет


        Top 10 за месяц (Фильмы)