.
Авторизация | Регистрация
Хочешь лучшие торренты? Добавь свой email!
Добавить

Торрент скачать бесплатно

» » Смертельное оружие / Lethal Weapon (2016) WEB-DL [H.264 / 1080p -LQ] (сезон 1, серии 1-2 из 13) LostFilm (обновляемая) торрент скачать бесплатно




    Смертельное оружие / Lethal Weapon (2016) WEB-DL [H.264 / 1080p -LQ] (сезон 1, серии 1-2 из 13) LostFilm (обновляемая) торрент скачать бесплатно

    Опубликовал: Админ | Дата: 2-10-2016, 04:02 | Просмотров: 12

    Производство: США/Good Session, Lin Pictures, Warner Bros. Television
    Жанр: боевик, триллер, драма, криминал
    Режиссер: Стив Бойум, МакДжи

    Актеры
    Клейн Кроуфорд, Дэймон Уайанс, Джордана Брюстер, Данте Браун, Джонатан Фернандес, Чандлер Кинни, Кевин Рам, Киша Шарп, Флориана Лима и др.

    Описание

    Полицейский Мартин Риггз работает в Техасе, он весел, бесшабашен, счастливо женат и ждет рождения сына. Но по дороге в роддом его жена гибнет в ДТП, и Риггз превращается в сломленного человека, который искренне желает умереть, поскольку жить ему теперь незачем. Он переезжает в Лос-Анджелес, поступает в тамошнюю полицию и получает в напарники 50-летнего Роджера Мерту. Тот только что перенес инфаркт, старается соблюдать режим и не подвергать сердце избыточным нагрузкам. Но с Риггзом этот номер не пройдет.

    Дата мировой премьеры: 21 сентября 2016
    Продолжительность: ~00: 45: 00 серия
    Качество видео: WEB-DL
    Перевод: Многоголосый закадровый, профессиональный -LostFilm
    Вид субтитров: вшитые отключаемые
    Язык субтитров: английский
    Видео: H.264/AVC, 1916x1076 (16: 9), ~5168 kbps
    Аудио Rus: AC-3, 48, 0 kHz, 2 ch, 384 kbps — многоголосый закадровый
    Аудио Eng: AC-3, 48, 0 kHz, 6 ch, 384 kbps — оригинал
    Код:

    Общее
    Уникальный идентификатор : 233982790560045973632583402345765405147 (0xB007723F7A359C1E8834E7BA5E7A01DB)
    Полное имя : D:Смертельное оружие (сезон любимого сериала 1) Lethal Weapon (2016) WEB-DL 1080p - LostFilmLethal.Weapon.S01E01.WEB-DL1080p.Rus.Eng.DV.LostFilm.mkv
    Формат : Matroska
    Версия формата : Version 4/Version 2
    Размер файла : 1, 95 Гбайт
    Продолжительность : 46 м. 58 с.
    Общий поток : 5938 Кбит/сек
    Название фильма : Lethal.Weapon.S01E01.WEB-DL1080p.Rus.Eng.DV.LostFilm/NNM-Club
    Дата кодирования : UTC 2016-09-30 14:50:53
    Программа кодирования : mkvmerge v8.2.0 (\'World of Adventure\') 64bit
    Библиотека кодирования : libebml v1.3.1 + libmatroska v1.4.2
    Обложка : Yes
    Attachments : Cover
    Видео
    Идентификатор : 1
    Формат : AVC
    Формат/Информация : Advanced Video Codec
    Профиль формата : High@L4
    Параметр CABAC формата : Да
    Параметр ReFrames формата : 4 кадра
    Идентификатор кодека : V_MPEG4/ISO/AVC
    Продолжительность : 46 м. 58 с.
    Битрейт : 5168 Кбит/сек
    Ширина : 1916 пикселей
    Высота : 1076 пикселей
    Соотношение сторон : 16:9
    Режим частоты кадров : Постоянный
    Частота кадров : 23, 976 (23976/1000) кадра/сек
    Цветовое пространство : YUV
    Субдискретизация насыщенности : 4:2:0
    Битовая глубина : 8 бит
    Тип развёртки : Прогрессивная
    Бит/(Пиксели*Кадры) : 0.105
    Размер потока : 1, 70 Гбайт (87%)
    Язык : English
    Default : Да
    Forced : Нет
    Цветовой диапазон : Limited
    Основные цвета : BT.709
    Характеристики трансфера : BT.709
    Коэффициенты матрицы : BT.709
    Аудио #1
    Идентификатор : 2
    Формат : AC-3
    Формат/Информация : Audio Coding 3
    Расширение режима : CM (complete main)
    Параметр Endianness формата : Big
    Идентификатор кодека : A_AC3
    Продолжительность : 46 м. Прикольно все это наверно придумал Европарламент потратив достаточно времени. 58 с.
    Вид битрейта : Постоянный
    Битрейт : 384 Кбит/сек
    Каналы : 2 канала
    Расположение каналов : Front: L R
    Частота : 48, 0 КГц
    Частота кадров : 31, 250 кадров/сек (1536 spf)
    Метод сжатия : С потерями
    Размер потока : 129 Мбайт (6%)
    Заголовок : LostFilm
    Язык : Russian
    Default : Да
    Forced : Нет
    Аудио #2
    Идентификатор : 3
    Формат : AC-3
    Формат/Информация : Audio Coding 3
    Расширение режима : CM (complete main)
    Параметр Endianness формата : Big
    Идентификатор кодека : A_AC3
    Продолжительность : 46 м. 58 с.
    Вид битрейта : Постоянный
    Битрейт : 384 Кбит/сек
    Каналы : 6 каналов
    Расположение каналов : Front: L C R, Side: L R, LFE
    Частота : 48, 0 КГц
    Частота кадров : 31, 250 кадров/сек (1536 spf)
    Метод сжатия : С потерями
    Размер потока : 129 Мбайт (6%)
    Язык : English
    Default : Нет
    Forced : Нет
    Текст
    Идентификатор : 4
    Формат : UTF-8
    Идентификатор кодека : S_TEXT/UTF8
    Идентификатор кодека/Информация : UTF-8 Plain Text
    Продолжительность : 46 м. Самое интересное в это истории, что об этом Европарламент ничего не знал. 15 с.
    Битрейт : 127 бит/сек
    Count of elements : 1150
    Размер потока : 43, 2 Кбайт (0%)
    Язык : English
    Default : Нет
    Forced : Нет


    Скриншоты для ознакомления




    Онлайн видео Смертельное оружие



    Смертельное оружие/Lethal Weapon (2016) WEB-DL [H.264/1080p -LQ] (сезон 1, серии 1-2 из 13) LostFilm (обновляемая)
    загрузка...
    Рейтинг →
     (голосов: 1, оценка 4/5, голосовать можно 1 раз )

    Другие торренты по теме:

  • Смертельное оружие 2 / Lethal Weapon 2 (1989) BDRip [H.264] скачать через торрент бесплатно
  • Смертельное оружие / Lethal Weapon (1987) BDRip [H.264] скачать через торрент бесплатно
  • Смертельное оружие 3 / Lethal Weapon 3 (1992) BDRip [H.264] скачать через торрент бесплатно
  • Смертельное оружие 4 / Lethal Weapon 4 (1998) BDRip [H.264]
  • Смертельное оружие. Конструктор Макаров (2008) SATRip скачать через торрент бесплатно
  • Михаил Барятинский | Тяжелый танк "Тигр". Смертельное оружие Рейха (2006) [PDF]
  • Смертельное Оружие / Lethal Weapon (2016) HDTVRip [H.264 / 720p-LQ] (сезон 1, серии 1 из 13) OmskBird (обновляемая)
  • Смертельное Оружие / Lethal Weapon (2016) HDTVRip (сезон 1, серии 1 из 13) OmskBird (обновляемая)


    • Комментарии (0):

      Информация

      Информация

        Посетители, находящиеся в группе Гости, не могут оставлять комментарии в данной новости.

        ↓ Меню




        ↓ Опрос

        Вы добавили сайт в закладки?
        Да
        Нет


        Top 10 за месяц (Фильмы)