.
Авторизация | Регистрация
Хочешь лучшие торренты? Добавь свой email!
Добавить

Торрент скачать бесплатно

» » Будьте моим мужем (1981) HDRip [H.264 / 720p] торрент скачать бесплатно




    Будьте моим мужем (1981) HDRip [H.264 / 720p] торрент скачать бесплатно

    Опубликовал: Админ | Дата: 2-10-2016, 04:02 | Просмотров: 21

    Производство: СССР, Мосфильм
    Жанр: Комедия, Мелодрама
    Режиссер: Алла Сурикова

    Актеры
    Лена Проклова, Андрей Миронов, Филипп Адамович, Нина Русланова, Наталья Крачковская, Владимир Басов, Антон Табаков, Баадур Цуладзе, Олег Анофриев, Николай Гринько, Георгий Штиль, Валентина Воилкова, Леонард Саркисов, Михаил Светин

    Описание

    Детский врач отправляется в отпуск на Юг, где его услуги в качестве… мужа понадобились молодой и очень красивой женщине. Дело в том, что одной с ребенком ей никто сдавать квартиру в курортном городе не хотел. Нравы тогда такие были.Вот ей и понадобился человек, который мог бы разыграть из себя ее мужа для поселения в частном секторе.

    Возраст: 12+ (зрителям, достигшим 12 лет)
    Релиз от: smithland
    Продолжительность: 01: 22: 10
    Качество видео: HDRip
    Видео: AVC/H.264, 976x704, ~3960 Kbps
    Аудио: AC3, 2 ch, 256 kbps, CBR
    Код:

    General
    Unique ID : 209196149792043111041573993335050058804 (0x9D61B6817FCD2754830508DE087DBC34)
    Complete name : Будьте моим мужем.mkv
    Format : Matroska
    Format version : Version 4/Version 2
    File size : 2.43 GiB
    Duration : 1h 22mn
    Overall bit rate : 4 235 Kbps
    Movie name : Будьте моим мужем (rip by smithland)
    Encoded date : UTC 2016-09-29 17:49:38
    Writing application : mkvmerge v9.4.2 (\'So High\') 64bit
    Writing library : libebml v1.3.4 + libmatroska v1.4.5
    Attachements : COVER.jpg
    DURATION : 01:22:10.304000000
    NUMBER_OF_FRAMES : 154072
    NUMBER_OF_BYTES : 157769728
    _STATISTICS_WRITING_APP : mkvmerge v9.4.2 (\'So High\') 64bit
    Video
    ID : 1
    Format : AVC
    Format/Info : Advanced Video Codec
    Format profile : High@L4
    Format settings, CABAC : Yes
    Format settings, ReFrames : 10 frames
    Codec ID : V_MPEG4/ISO/AVC
    Duration : 1h 22mn
    Bit rate : 3 960 Kbps
    Width : 976 pixels
    Height : 704 pixels
    Display aspect ratio : 1.386
    Frame rate mode : Constant
    Frame rate : 25.000 fps
    Color space : YUV
    Chroma subsampling : 4:2:0
    Bit depth : 8 bits
    Scan type : Progressive
    Bits/(Pixel*Frame) : 0.231
    Stream size : 2.24 GiB (92%)
    Writing library : x264 core 146 r2538 121396c
    Encoding settings : cabac=1/ref=10/deblock=1:-1:1/analyse=0x3:0x133/me=umh/subme=11/psy=1/psy_rd=1.25:0.35/mixed_ref=1/me_range=30/chroma_me=1/trellis=2/8x8dct=1/cqm=0/deadzone=21, 11/fast_pskip=1/chroma_qp_offset=-4/threads=12/lookahead_threads=1/sliced_threads=0/nr=0/decimate=0/interlaced=0/bluray_compat=0/constrained_intra=0/bframes=6/b_pyramid=2/b_adapt=1/b_bias=0/direct=1/weightb=1/open_gop=1/weightp=2/keyint=250/keyint_min=25/scenecut=40/intra_refresh=0/rc_lookahead=40/rc=abr/mbtree=1/bitrate=3960/ratetol=1.0/qcomp=0.60/qpmin=0/qpmax=69/qpstep=4/ip_ratio=1.40/aq=1:1.10
    Language : Russian
    Default : Yes
    Forced : Yes
    Color range : Limited
    Color primaries : Generic film
    Audio
    ID : 2
    Format : AC-3
    Format/Info : Audio Coding 3
    Mode extension : CM (complete main)
    Format settings, Endianness : Big
    Codec ID : A_AC3
    Duration : 1h 22mn
    Bit rate mode : Constant
    Bit rate : 256 Kbps
    Channel(s) : 2 channels
    Channel positions : Front: L R
    Sampling rate : 48.0 KHz
    Compression mode : Lossy
    Stream size : 150 MiB (6%)
    Language : Russian
    Default : Yes
    Forced : Yes


    Скриншоты для ознакомления




    Онлайн видео Будьте моим мужем (1981) HDRip [H.264



    Будьте моим мужем (1981) HDRip [H.264/720p]
    загрузка...
    Рейтинг →
     (голосов: 1, оценка 5/5, голосовать можно 1 раз )

    Другие торренты по теме:

  • Будьте моим мужем (1981) DVDRip скачать через торрент бесплатно
  • Будьте моим мужем (1981) HDTV [H.264 / 1080i]


    • Комментарии (0):

      Информация

      Информация

        Посетители, находящиеся в группе Гости, не могут оставлять комментарии в данной новости.

        ↓ Меню




        ↓ Опрос

        Вы добавили сайт в закладки?
        Да
        Нет


        Top 10 за месяц (Фильмы)