.
Авторизация | Регистрация
Хочешь лучшие торренты? Добавь свой email!
Добавить

Торрент скачать бесплатно

» » Предельная глубина / Submerged (2005) BDRip торрент скачать бесплатно




    Предельная глубина / Submerged (2005) BDRip торрент скачать бесплатно

    Опубликовал: Админ | Дата: 2-10-2016, 04:01 | Просмотров: 17

    Производство: США, Великобритания, Болгария
    Жанр: Боевик, Триллер
    Режиссер: Энтони Хикокс

    Актеры
    Стивен Сигал, Кристин Адамс, Уильям Хоуп, Ник Бримбл, Винни Джонс, Элисон Кинг, П.Х. О таком странном сюжете не догадывалась даже Ангела Меркель. Мориарти, Гэри Дэниелс, Росс МакКолл, Стефен Да Коста

    Описание

    Крис Коди — самый независимый агент по борьбе с терроризмом — борется за жизнь глубоко в морской пучине. Прикольно все это наверно придумал Китай потратив достаточно времени. Борется не только со стихией, но и с предательством.
    Еще совсем недавно он был узником военной тюрьмы. Его освободили по распоряжению Президента США для выполнения особо важного задания. Он должен выявить и уничтожить убийц посла США в одной из стран мира.
    Но агенты ЦРУ, прикрывающие операцию Криса Коди, не сообщают ему, что за убийством стоит Служба Охраны Президента. Так захлопывается смертельная ловушка. Но еще не все потеряно…

    Возраст: 16+ (зрителям, достигшим 16 лет)
    Рейтинг MPAA: R (лицам до 17 лет обязательно присутствие взрослого)
    Дата выхода DVD релиза: 16 июня 2005, CP-Digital
    Продолжительность: 01: 36: 07
    Качество видео: BDRip
    Перевод: Профессиональный (Многоголосый закадровый ), любительский(Двуголосый закадровый)
    Видео: Xvid, 704x384 (1, 85: 1), ~1769 Kbps (0.273 bit/pixel)
    Аудио 1: Русский(Dolby AC3, 48 kHz, 2 ch, 192 Kbps) -MVO , CP/Пирамида
    Аудио 2: Русский(Dolby AC3, 48 kHz 2 ch, 192 Kbps) -DVO , ТВ-3
    Общее
    Полное имя : Predelnaya.glubina.2005.BDRip.avi
    Формат : AVI
    Формат/Информация : Audio Video Interleave
    Размер файла : 1, 46 Гбайт
    Продолжительность : 1 ч. 36 м.
    Общий поток : 2168 Кбит/сек
    Название фильма : Предельная глубина/Submerged (2005) BDRip
    Режиссёр : kingsize87
    Программа кодирования : VirtualDubMod 1.5.10.2 (build 2540/release)
    Авторское право : HQCLUB
    Примечание : 22.09.2016
    Видео
    Идентификатор : 0
    Формат : MPEG-4 Visual
    Профиль формата : Advanced Simple@L5
    Параметр BVOP формата : Да
    Параметр QPel формата : Нет
    Параметр GMC формата : Без точки перехода
    Параметр матрицы формата : Выборочная
    Идентификатор кодека : XVID
    Идентификатор кодека/Подсказка : XviD
    Продолжительность : 1 ч. 36 м.
    Битрейт : 1770 Кбит/сек
    Ширина : 704 пикселя
    Высота : 384 пикселя
    Соотношение сторон : 1, 85: 1
    Частота кадров : 23, 976 (23976/1000) кадра/сек
    Цветовое пространство : YUV
    Субдискретизация насыщенности : 4: 2: 0
    Битовая глубина : 8 бит
    Тип развёртки : Прогрессивная
    Метод сжатия : С потерями
    Бит/(Пиксели*Кадры) : 0.273
    Размер потока : 1, 19 Гбайт (82%)
    Библиотека кодирования : XviD 66
    Аудио #1
    Идентификатор : 1
    Формат : AC-3
    Формат/Информация : Audio Coding 3
    Расширение режима : CM (complete main)
    Параметр Endianness формата : Big
    Идентификатор кодека : 2000
    Продолжительность : 1 ч. 36 м.
    Вид битрейта : Постоянный
    Битрейт : 192 Кбит/сек
    Каналы : 2 канала
    Расположение каналов : Front: L R
    Частота : 48, 0 КГц
    Частота кадров : 31, 250 кадров/сек (1536 spf)
    Метод сжатия : С потерями
    Размер потока : 132 Мбайт (9%)
    Выравнивание : Разделение по промежуткам
    Продолжительность промежутка : 42 мс. (1, 00 видеокадр)
    Время предзагрузки промежутка : 500 мс.
    Аудио #2
    Идентификатор : 2
    Формат : AC-3
    Формат/Информация : Audio Coding 3
    Расширение режима : CM (complete main)
    Параметр Endianness формата : Big
    Идентификатор кодека : 2000
    Продолжительность : 1 ч. 36 м.
    Вид битрейта : Постоянный
    Битрейт : 192 Кбит/сек
    Каналы : 2 канала
    Расположение каналов : Front: L R
    Частота : 48, 0 КГц
    Частота кадров : 31, 250 кадров/сек (1536 spf)
    Метод сжатия : С потерями
    Размер потока : 132 Мбайт (9%)
    Выравнивание : Разделение по промежуткам
    Продолжительность промежутка : 42 мс. (1, 00 видеокадр)
    Время предзагрузки промежутка : 500 мс.

    Скриншоты для ознакомления



    Все одноименные релизы в Клубе
    Время раздачи: 24/7 (круглосуточно) (до появления первых 3-5 скачавших)
    .dlother {background: url(\'http://assets.nnm-club.ws/forum/images/dlother.png\');width: 200px;height: 50px;overflow: hidden;margin: 0;-webkit-border-radius: 5px;-moz-border-radius: 5px;border-radius: 5px} .dlother a, .dlother a: hover {color: rgba(255, 255, 255, 0.6);font-size: 18px;font-family: Arial;display: block;padding: 14px;text-decoration: none;text-align: left;font-weight: normal;margin: 0} .dlother a span {color: #fff}
    NNMClub.to_Predelnaya.glubina.2005.BDRip.avi.torrent
    Торрент: Зарегистрирован
    Подписаться на изменения
    Примагнититься
    Free Leech
    Скачать
    15 KB
    Зарегистрирован: 30 Сен 2016 04: 56: 55
    Размер: 1, 46 GB (Вам доступно: не ограничено во время Free Leech)
    Рейтинг: 4, 2 (Голосов: 19 )Супер Хорошо Средне Так себе Убил время
    Поблагодарили: 118 Спасибо (список )
    Проверка: Оформление проверено модератором 30 Сен 2016 06: 15: 25
    Как cкачать · Как раздать · Правильно оформить · Поднять ратио!
    Вернуться к началу
    Посмотреть профильОтправить личное сообщениеНайти релизы
    zvadjzs
    Стаж: 6 лет 4 мес.
    Сообщений: 105
    Ratio: 2, 002
    0%
    russia.gif
    Сообщение30 Сен 2016 18: 06: 58 Заголовок сообщения:
    Ответить с цитатой

    Первый скрин и рейтинг обо всём мне сказали...
    Вернуться к началу
    Посмотреть профильОтправить личное сообщение 0
    LOG1NOV-S®
    Стаж: 1 год 3 мес.
    Сообщений: 334
    Ratio: 74, 587
    Раздал: 3, 447 TB
    Поблагодарили: 23198
    100%
    russia.gif
    Новое сообщение01 Окт 2016 04: 07: 01 Заголовок сообщения:
    Ответить с цитатой

    zvadjzs писал(а): Перейти к сообщению
    Первый скрин и рейтинг обо всём мне сказали...

    Интересно, а что именно..?=)Вам не понравился фильм?
    Вы оцениваете фильмы глядя на рейтинг и скриншот из фильма?

    Скриншоты для ознакомления




    Онлайн видео Предельная глубина



    Предельная глубина/Submerged (2005) BDRip
    загрузка...
    Рейтинг →
     (голосов: 1, оценка 4/5, голосовать можно 1 раз )

    Другие торренты по теме:

  • Предельная глубина (2014) WEB-DLRip [H.264 / 720p-LQ] (серии 1-4 из 4)


    • Комментарии (0):

      Информация

      Информация

        Посетители, находящиеся в группе Гости, не могут оставлять комментарии в данной новости.

        ↓ Меню




        ↓ Опрос

        Вы добавили сайт в закладки?
        Да
        Нет


        Top 10 за месяц (Фильмы)