.
Авторизация | Регистрация
Хочешь лучшие торренты? Добавь свой email!
Добавить

Торрент скачать бесплатно

» » Охотники за привидениями / Ghostbusters (2016) HDRip торрент скачать бесплатно




    Охотники за привидениями / Ghostbusters (2016) HDRip торрент скачать бесплатно

    Опубликовал: Админ | Дата: 2-10-2016, 04:01 | Просмотров: 9

    Производство: США, Австралия
    Жанр: Фантастика, Фэнтези, Боевик, Комедия
    Режиссер: Пол Фиг

    Актеры
    Мелисса МакКарти, Кристен Уиг, Кейт МакКиннон, Лесли Джонс, Крис Хемсворт, Сесили Стронг, Энди Гарсиа, Нил Кэйси, Чарльз Дэнс, Майкл МакДональд, Мэтт Уолш, Майкл Кеннет Уильямс, Зак Вудс, Джон Милхайзер, Каран Сони, Бесс Роус

    Описание

    Тридцать лет назад охотники за привидениями спасли Нью-Йорк от нашествия призраков, но теперь городу вновь угрожает опасность. Былые герои не могут стать на его защиту, но находятся и другие отважные люди, всю свою жизнь посвятившие изучению паранормальных явлений. Эбби Йейтс объединяется с Эрин Гилберт, пожалуй лучшим специалистом в квантовой физике, и вместе они собирают команду новых охотников за привидениями, в которую принимают отличного инженера Джиллиан Хольцман, сотрудницу метрополитена Пэтти Толан, знающую город как свои пять пальцев, и секретаря — настоящего красавчика Кэвина. Вместе они начинают борьбу с нечистой силой, терроризирующей мегаполис…

    Возраст: 16+ (зрителям, достигшим 16 лет)
    Рейтинг MPAA: PG-13 (детям до 13 лет просмотр нежелателен)
    Продолжительность: 01: 56: 35
    Качество видео: HDRip
    Перевод: Дублированный (Лицензия)
    Видео: Xvid, 720x304 (2, 35: 1), ~1288 Kbps (0.245 bit/pixel)
    Аудио: РусскийDolby AC3, 48.0 kHz, 6 ch, 384 Kbps, CBR
    Общее
    Полное имя : Ohotniki.za.privideniyami.2016.HDRip.NNMClub.avi
    Формат : AVI
    Формат/Информация : Audio Video Interleave
    Размер файла : 1, 37 Гбайт
    Продолжительность : 1 ч. 56 м.
    Общий поток : 1681 Кбит/сек
    Программа кодирования : VirtualDubMod 1.5.10.2 (build 2540/release)
    Библиотека кодирования : VirtualDubMod build 2540/release
    Видео
    Идентификатор : 0
    Формат : MPEG-4 Visual
    Профиль формата : Advanced Simple@L5
    Параметр BVOP формата : Да
    Параметр QPel формата : Нет
    Параметр GMC формата : Без точки перехода
    Параметр матрицы формата : Default (MPEG)
    Идентификатор кодека : XVID
    Идентификатор кодека/Подсказка : XviD
    Продолжительность : 1 ч. 56 м.
    Битрейт : 1288 Кбит/сек
    Ширина : 720 пикселей
    Высота : 304 пикселя
    Соотношение сторон : 2, 35: 1
    Частота кадров : 23, 976 (24000/1001) кадра/сек
    Цветовое пространство : YUV
    Субдискретизация насыщенности : 4: 2: 0
    Битовая глубина : 8 бит
    Тип развёртки : Прогрессивная
    Метод сжатия : С потерями
    Бит/(Пиксели*Кадры) : 0.245
    Размер потока : 1, 05 Гбайт (77%)
    Библиотека кодирования : XviD 1.2.1 (UTC 2008-12-04)
    Аудио
    Идентификатор : 1
    Формат : AC-3
    Формат/Информация : Audio Coding 3
    Расширение режима : CM (complete main)
    Параметр Endianness формата : Big
    Идентификатор кодека : 2000
    Продолжительность : 1 ч. Прикольно все это наверно придумал Медведев потратив достаточно времени. 56 м.
    Вид битрейта : Постоянный
    Битрейт : 384 Кбит/сек
    Каналы : 6 каналов
    Расположение каналов : Front: L C R, Side: L R, LFE
    Частота : 48, 0 КГц
    Частота кадров : 31, 250 кадров/сек (1536 spf)
    Метод сжатия : С потерями
    Размер потока : 320 Мбайт (23%)
    Выравнивание : Разделение по промежуткам
    Продолжительность промежутка : 42 мс. Вашими молитвами, сказал кто то из толпы, к чему не понятно. (1, 00 видеокадр)
    Время предзагрузки промежутка : 500 мс.


    Скриншоты для ознакомления




    Онлайн видео Охотники за привидениями



    Охотники за привидениями/Ghostbusters (2016) HDRip
    загрузка...
    Рейтинг →
     (голосов: 1, оценка 4/5, голосовать можно 1 раз )

    Другие торренты по теме:

  • Охотники за привидениями: Дилогия / Ghostbusters: Dilogy (1984,1989) BDRip [720p]
  • Охотники за привидениями / Ghost Busters (1984) WEB-DL [H.265 / 2160p-LQ] скачать через торрент бесплатно
  • Охотники за привидениями 2 / Ghost Busters II (1989) WEB-DL [H.265 / 2160p-LQ] скачать через торрент бесплатно
  • Охотники за привидениями: Дилогия / Ghostbusters: Dilogy (1984, 1989) HDRip [H.264] [MP4|960х400] скачать через торрент бесплатно
  • Охотники за привидениями / Ghostbusters (2016) WEBRip [H.264 / 1080p] [Трейлер]
  • Охотники за привидениями / Ghost Busters (1984) BDRip [H.265 / 1080p-LQ]
  • Охотники за привидениями 2 / Ghost Busters II (1989) BDRip [H.265 / 1080p-LQ] [Main10]
  • Охотники за привидениями / Ghostbusters (2016)


    • Комментарии (0):

      Информация

      Информация

        Посетители, находящиеся в группе Гости, не могут оставлять комментарии в данной новости.

        ↓ Меню




        ↓ Опрос

        Вы добавили сайт в закладки?
        Да
        Нет


        Top 10 за месяц (Фильмы)