.
Авторизация | Регистрация
Хочешь лучшие торренты? Добавь свой email!
Добавить

Торрент скачать бесплатно

» » Алиса в Зазеркалье / Alice Through the Looking Glass (2016) HDRip торрент скачать бесплатно




    Алиса в Зазеркалье / Alice Through the Looking Glass (2016) HDRip торрент скачать бесплатно

    Опубликовал: Админ | Дата: 2-10-2016, 04:00 | Просмотров: 5

    Производство: США, Великобритания
    Жанр: Фэнтези, Приключения, Семейный
    Режиссер: Джеймс Бобин

    Актеры
    Миа Васиковска, Джонни Депп, Клаудио Энкарнасьон Монтеро, Саша Барон Коэн, Энн Хэтэуэй, Хелена Бонем Картер, Алан Рикман, Эндрю Скотт, Майкл Шин, Рис Иванс

    Описание

    На этот раз главной героине предстоит отправиться в путешествие во времени, полное неожиданностей и ярких открытий, чтобы спасти своего друга, Безумного Шляпника.

    Возраст: 12+ (зрителям, достигшим 12 лет)
    Рейтинг MPAA: PG (рекомендуется присутствие родителей)
    Дата мировой премьеры: 10 мая 2016
    Дата российской премьеры: 26 мая 2016, WDSSPR
    Продолжительность: 01: 52: 57
    Качество видео: HDRip(Рип с BDRip 720)
    Перевод: Дублированный (Лицензия)
    Видео: Xvid, 720x384 (1, 85: 1), ~1339 Kbps (0.202 bit/pixel)
    Аудио: РусскийDolby AC3, 6 ch, 384 Kbps, CBR
    YouTube
    Общее
    Полное имя : Alisa.v.Zazerkal\'e.2016.HDRip_NNMClub.avi
    Формат : AVI
    Формат/Информация : Audio Video Interleave
    Размер файла : 1, 37 Гбайт
    Продолжительность : 1 ч. 52 м.
    Общий поток : 1732 Кбит/сек
    Программа кодирования : VirtualDubMod 1.5.10.2 (build 2540/release)
    Библиотека кодирования : VirtualDubMod build 2540/release
    Видео
    Идентификатор : 0
    Формат : MPEG-4 Visual
    Профиль формата : Advanced Simple@L5
    Параметр BVOP формата : Да
    Параметр QPel формата : Нет
    Параметр GMC формата : Без точки перехода
    Параметр матрицы формата : Default (MPEG)
    Идентификатор кодека : XVID
    Идентификатор кодека/Подсказка : XviD
    Продолжительность : 1 ч. 52 м.
    Битрейт : 1339 Кбит/сек
    Ширина : 720 пикселей
    Высота : 384 пикселя
    Соотношение сторон : 1, 85: 1
    Частота кадров : 23, 976 (24000/1001) кадра/сек
    Цветовое пространство : YUV
    Субдискретизация насыщенности : 4: 2: 0
    Битовая глубина : 8 бит
    Тип развёртки : Прогрессивная
    Метод сжатия : С потерями
    Бит/(Пиксели*Кадры) : 0.202
    Размер потока : 1, 06 Гбайт (77%)
    Библиотека кодирования : XviD 1.2.1 (UTC 2008-12-04)
    Аудио
    Идентификатор : 1
    Формат : AC-3
    Формат/Информация : Audio Coding 3
    Расширение режима : CM (complete main)
    Параметр Endianness формата : Big
    Идентификатор кодека : 2000
    Продолжительность : 1 ч. 52 м.
    Вид битрейта : Постоянный
    Битрейт : 384 Кбит/сек
    Каналы : 6 каналов
    Расположение каналов : Front: L C R, Side: L R, LFE
    Частота : 48, 0 КГц
    Частота кадров : 31, 250 кадров/сек (1536 spf)
    Метод сжатия : С потерями
    Размер потока : 310 Мбайт (22%)
    Выравнивание : Разделение по промежуткам
    Продолжительность промежутка : 42 мс. (1, 00 видеокадр)
    Время предзагрузки промежутка : 500 мс.


    Скриншоты для ознакомления




    Онлайн видео Алиса в Зазеркалье



    Алиса в Зазеркалье/Alice Through the Looking Glass (2016) HDRip
    загрузка...
    Рейтинг →
     (голосов: 1, оценка 5/5, голосовать можно 1 раз )

    Другие торренты по теме:

  • Алиса в стране чудес & Алиса в Зазеркалье / Alice In Wonderland & Alice Through the Looking Glass (2010 / 2016) HDRip / WEB-DLRip [H.264] [MP4|1024x576|1024x552]
  • Льюис Кэрролл | Алиса в Стране чудес. Алиса в Зазеркалье (сборник) (2016) [FB2]
  • Алиса в Зазеркалье 1.3 [Ru] скачать через торрент бесплатно
  • Алиса в Зазеркалье / Alice Through the Looking Glass (2016) WEBRip [H.264 / 1080p] [Трейлер]
  • Льюис Кэрролл | Алиса в Зазеркалье (2005) [m4b|AAC]
  • Алиса в Зазеркалье / Alice Through the Looking Glass (2016) CamRip
  • Алиса в Зазеркалье / Alice Through the Looking Glass (2016) TC [H.264 / 720p-LQ] [звук с CAMRip]
  • Алиса в Зазеркалье / Alice Through the Looking Glass (2016) TC [звук с CAMRip]


    • Комментарии (0):

      Информация

      Информация

        Посетители, находящиеся в группе Гости, не могут оставлять комментарии в данной новости.

        ↓ Меню




        ↓ Опрос

        Вы добавили сайт в закладки?
        Да
        Нет


        Top 10 за месяц (Фильмы)