.
Авторизация | Регистрация
Хочешь лучшие торренты? Добавь свой email!
Добавить

Торрент скачать бесплатно

» » Билет в один конец на Луну / Bilet na ksiezyc / One Way Ticket to the Moon (2013) DVDRip [VO] торрент скачать бесплатно




    Билет в один конец на Луну / Bilet na ksiezyc / One Way Ticket to the Moon (2013) DVDRip [VO] торрент скачать бесплатно

    Опубликовал: Админ | Дата: 2-10-2016, 04:00 | Просмотров: 7

    Производство: Польша/Studio Filmowe Zebra
    Жанр: Драма, Мелодрама, Комедия
    Режиссер: Яцек Бромский

    Актеры
    Филип Плавяк, Матеуш Косьцюкевич, Анна Пшибыльска, Божена Адамек, Алисиа Бах, Анджей Бей-Заборский, Zosia Bromska, Конрад Бугай, Павел Бурчик, Arkadiusz Buszko, Анджей Хыра

    Описание

    Адам - наивный и милый молодой человек из польской провинции — призван в армию. На дворе 1969 год, все отсрочки отменены, да ещё ехать приходится на другой край страны, служить в ВМФ.
    Старший брат Адама Антек решает напоследок приобщить младшего брата к радостям жизни и сделать из него настоящего мужчину. Адам братом отправляются к пункту службы, встречая на пути старых приятелей, сослуживцев брата, заводя новые знакомства, получая различные советы и опыт.
    Первое вино, первая любовь, первый раз... Но справиться ли он?...

    Продолжительность: 01: 58: 17
    Качество видео: DVDRip
    Перевод: Одноголосый закадровый (PashaUp)
    Язык озвучки: Русский, Польский
    Субтитры: Русские (отдельным файлом от Maxj, ред. Юлия Караулова, dsa69-2, bohdk)
    Видео: Xvid, 720x400 (16: 9), ~2100 Kbps, 25.000 fps, 0.291 bpp
    Аудио #1: AC3, 6 ch, 448 Kbps | Русский VO, PashaUp
    Аудио #2: AC3, 6 ch, 448 Kbps | Polski
    Код:

    General
    Complete name : Y:Bilet v odin konetc na Lunu - Bilet na ksiezyc (2013) DVDRip Rus Pol.avi
    Format : AVI
    Format/Info : Audio Video Interleave
    Format profile : OpenDML
    File size : 2.49 GiB
    Duration : 1h 58mn
    Overall bit rate : 3 012 Kbps
    Writing application : VirtualDubModRus 1.5.10.2 (build 2540/release)
    Writing library : VirtualDubMod build 2540/release
    Video
    ID : 0
    Format : MPEG-4 Visual
    Format profile : Advanced Simple@L5
    Format settings, BVOP : 2
    Format settings, QPel : No
    Format settings, GMC : No warppoints
    Format settings, Matrix : Default (H.263)
    Codec ID : XVID
    Codec ID/Hint : XviD
    Duration : 1h 58mn
    Bit rate : 2 099 Kbps
    Width : 720 pixels
    Height : 400 pixels
    Display aspect ratio : 16:9
    Frame rate : 25.000 fps
    Color space : YUV
    Chroma subsampling : 4:2:0
    Bit depth : 8 bits
    Scan type : Progressive
    Compression mode : Lossy
    Bits/(Pixel*Frame) : 0.291
    Stream size : 1.73 GiB (70%)
    Writing library : XviD 1.2.1 (UTC 2008-12-04)
    Audio #1
    ID : 1
    Format : AC-3
    Format/Info : Audio Coding 3
    Mode extension : CM (complete main)
    Format settings, Endianness : Big
    Codec ID : 2000
    Duration : 1h 58mn
    Bit rate mode : Constant
    Bit rate : 448 Kbps
    Channel(s) : 6 channels
    Channel positions : Front: L C R, Side: L R, LFE
    Sampling rate : 48.0 KHz
    Frame rate : 31.250 fps (1536 spf)
    Compression mode : Lossy
    Stream size : 379 MiB (15%)
    Alignment : Split accross interleaves
    Interleave, duration : 40 ms (1.00 video frame)
    Interleave, preload duration : 500 ms
    Audio #2
    ID : 2
    Format : AC-3
    Format/Info : Audio Coding 3
    Mode extension : CM (complete main)
    Format settings, Endianness : Big
    Codec ID : 2000
    Duration : 1h 58mn
    Bit rate mode : Constant
    Bit rate : 448 Kbps
    Channel(s) : 6 channels
    Channel positions : Front: L C R, Side: L R, LFE
    Sampling rate : 48.0 KHz
    Frame rate : 31.250 fps (1536 spf)
    Compression mode : Lossy
    Stream size : 379 MiB (15%)
    Alignment : Split accross interleaves
    Interleave, duration : 40 ms (1.00 video frame)
    Interleave, preload duration : 500 ms


    Скриншоты для ознакомления




    Онлайн видео Билет в один конец на Луну



    Билет в один конец на Луну/Bilet na ksiezyc/One Way Ticket to the Moon (2013) DVDRip [VO]
    загрузка...
    Рейтинг →
     (голосов: 1, оценка 5/5, голосовать можно 1 раз )

    Другие торренты по теме:

  • Билет в один конец на Луну / Bilet na ksiezyc (2013) DVDRip скачать через торрент бесплатно
  • Говорим и показываем. Билет в один конец (27.05.2015) SATRip скачать через торрент бесплатно
  • Билет в один конец (1988) DVBRip


    • Комментарии (0):

      Информация

      Информация

        Посетители, находящиеся в группе Гости, не могут оставлять комментарии в данной новости.

        ↓ Меню




        ↓ Опрос

        Вы добавили сайт в закладки?
        Да
        Нет


        Top 10 за месяц (Фильмы)