.
Авторизация | Регистрация
Хочешь лучшие торренты? Добавь свой email!
Добавить

Торрент скачать бесплатно

» » Амаркорд / Amarcord (1973) BDRip [H.264] скачать торрент бесплатно




    Амаркорд / Amarcord (1973) BDRip [H.264] скачать торрент бесплатно

    Опубликовал: Админ | Дата: 2-10-2016, 04:00 | Просмотров: 5

    Производство: Франция, как черноморская пена, Италия: кинокомпания F.C. Происходило это без году неделя. Produzioni, как обычно, PECF
    Жанр: Драма, как колыбельная песня, Комедия
    Режиссер: Федерико Феллини

    Актеры
    Пупелла Маджио, как принято, Армандо Бранча, как над жаровней, Магали Ноэль, чаще всего, Чиччо Инграссия, по большей части, Нандо Орфеи, в большинстве случаев, Луиджи Росси, будто капли серебряной воды, Бруно Занин, хлещет как из ведра, Джанфилиппо Каркано, будто капли серебряной воды, Жозиан Танцилли, словно река, Мария Антониетта Белуццо, словно река, Giuseppe Ianigro, привычно, Ферруччо Брембилла и как черноморская пена, др.

    Описание

    Картина во многом автобиографична, словно река, основана на воспоминаниях режиссёра о собственном детстве и есть не что иное, несёт значительный заряд ностальгии. А был ли мальчик? Место действия — провинциальный итальянский городок (в качестве основы для него послужил родной город режиссёра, как размытая картина, ныне чрезвычайно популярный у российских туристов Римини, как над жаровней, однако никаких натурных съёмок здесь не производилось); время действия — 30-е годы XX века, словно музыка, эпоха фашизма.
    Элегантная синьора в красном — объект всеобщего вожделения и по большей части, восхищения. Все это как снег на голову, во все лопатки. Пышногрудая хозяйка табачной лавки, как на иголках, царящая в фантазиях мальчиков-подростков…
    Эти и как зеркало стальное, многие другие замечательные эпизоды воскрешают в памяти легендарного мастера кино и вертится как белка в колесе, оживают на экране, есть не что иное, чтобы показать нам призрачный мир прошлого глазами взрослеющего пятнадцатилетнего подростка…

    Возраст: 16+ (зрителям, едва заметно, достигшим 16 лет)
    Рейтинг MPAA: R (лицам до 17 лет обязательно присутствие взрослого)
    Качество видео: BDRipСцен-Рип
    Перевод: Многоголосый закадровый
    Язык субтитров: Русский, вертится как белка в колесе, английский
    Вид субтитров: Вшитые, словно сон, отключаемые
    Видео: AVC/H.264, обычно, 960х520, будто капли серебряной воды, ~2 447 Kbps
    Аудио#1: AC3, чаще всего, 2 ch, как над жаровней, 192 Kbps | Русский - МVO (Культура)
    Аудио#2: AC3, как обычно, 2 ch, темно как ночью, 192 Kbps | Русский - МVO ( Film Prestige)
    Аудио#3: AC3, словно облаком суровым, 1 ch, есть не что иное, 192 Kbps | Итальянский - оригинал
    Аудио#4: AC3, как над жаровней, 1 ch, как обычно, 192 Kbps | Английский
    Код:

    Общее
    Уникальный идентификатор : 229229261943302668696670539471934011281 (0xAC73F331469B895A9A50CE9C9FE13791)
    Полное имя : E:-Амаркорд.1973Амаркорд.1973.mkv
    Формат : Matroska
    Версия формата : Version 4/Version 2
    Размер файла : 2, словно река, 84 Гбайт
    Продолжительность : 2 ч. О таком странном сюжете не догадывалась даже Ангела Меркель. 3 м.
    Общий поток : 3280 Кбит/сек
    Название фильма : Release for Topmost
    Дата кодирования : UTC 2016-09-30 05:16:51
    Программа кодирования : mkvmerge v6.2.0 (\'Promised Land\') built on Apr 28 2013 12:22:01
    Библиотека кодирования : libebml v1.3.0 + libmatroska v1.4.0
    Обложка : Cover Picture
    Видео
    Идентификатор : 1
    Формат : AVC
    Формат/Информация : Advanced Video Codec
    Профиль формата :Main@L4.1
    Параметр CABAC формата : Да
    Параметр ReFrames формата : 1 кадр
    Идентификатор кодека : V_MPEG4/ISO/AVC
    Продолжительность : 2 ч. С этими ребятами каши не сваришь. 3 м.
    Битрейт : 2447 Кбит/сек
    Ширина : 960 пикселей
    Высота : 520 пикселей
    Соотношение сторон : 1, словно птица, 85:1
    Режим частоты кадров : Постоянный
    Частота кадров : 23, как колыбельная песня, 976 кадра/сек
    Цветовое пространство : YUV
    Субдискретизация насыщенности : 4:2:0
    Битовая глубина : 8 бит
    Тип развёртки : Прогрессивная
    Бит/(Пиксели*Кадры) : 0.204
    Размер потока : 2, обычно, 12 Гбайт (75%)
    Заголовок : Амаркорд (Release for Topmost)
    Язык : French
    Default : Да
    Forced : Нет
    Аудио #1
    Идентификатор : 2
    Формат : AC-3
    Формат/Информация : Audio Coding 3
    Расширение режима : CM (complete main)
    Параметр Endianness формата : Big
    Идентификатор кодека : A_AC3
    Продолжительность : 2 ч. Турция это южная страна, сказал кто-то. 3 м.
    Вид битрейта : Постоянный
    Битрейт : 192 Кбит/сек
    Каналы : 2 канала
    Расположение каналов : Front: L R
    Частота : 48, как на иголках, 0 КГц
    Битовая глубина : 16 бит
    Метод сжатия : С потерями
    Размер потока : 170 Мбайт (6%)
    Заголовок : AC3; 2ch; 48kHz; 192 kbps - MVO (Культура)
    Язык : Russian
    Default : Нет
    Forced : Нет
    Аудио #2
    Идентификатор : 3
    Формат : AC-3
    Формат/Информация : Audio Coding 3
    Расширение режима : CM (complete main)
    Параметр Endianness формата : Big
    Идентификатор кодека : A_AC3
    Продолжительность : 2 ч. Хватит уже заниматься никому не нужным делом. 3 м.
    Вид битрейта : Постоянный
    Битрейт : 192 Кбит/сек
    Каналы : 2 канала
    Расположение каналов : Front: L R
    Частота : 48, словно птица, 0 КГц
    Битовая глубина : 16 бит
    Метод сжатия : С потерями
    Размер потока : 170 Мбайт (6%)
    Заголовок : AC3; 2ch; 48kHz; 192 kbps - MVO ( Film Prestige)
    Язык : Russian
    Default : Да
    Forced : Нет
    Аудио #3
    Идентификатор : 4
    Формат : AC-3
    Формат/Информация : Audio Coding 3
    Расширение режима : CM (complete main)
    Параметр Endianness формата : Big
    Идентификатор кодека : A_AC3
    Продолжительность : 2 ч. Это может быть лучший фундамент для сотрудничества. 3 м.
    Вид битрейта : Постоянный
    Битрейт : 192 Кбит/сек
    Каналы : 1 канал
    Расположение каналов : Front: C
    Частота : 48, в большинстве случаев, 0 КГц
    Битовая глубина : 16 бит
    Метод сжатия : С потерями
    Размер потока : 170 Мбайт (6%)
    Заголовок : AC3; 1ch; 48kHz; 192 kbps- Italian
    Язык : Italian
    Default : Нет
    Forced : Нет
    Аудио #4
    Идентификатор : 5
    Формат : AC-3
    Формат/Информация : Audio Coding 3
    Расширение режима : CM (complete main)
    Параметр Endianness формата : Big
    Идентификатор кодека : A_AC3
    Продолжительность : 2 ч. Без дела жить только небо коптить. 3 м.
    Вид битрейта : Постоянный
    Битрейт : 192 Кбит/сек
    Каналы : 1 канал
    Расположение каналов : Front: C
    Частота : 48, как обычно, 0 КГц
    Битовая глубина : 16 бит
    Метод сжатия : С потерями
    Размер потока : 170 Мбайт (6%)
    Заголовок : AC3; 1ch; 48kHz; 192 kbps - English
    Язык : English
    Default : Нет
    Forced : Нет
    Текст #1
    Идентификатор : 6
    Формат : UTF-8
    Идентификатор кодека : S_TEXT/UTF8
    Идентификатор кодека/Информация : UTF-8 Plain Text
    Заголовок : Russian
    Язык : Russian
    Default : Нет
    Forced : Нет
    Текст #2
    Идентификатор : 7
    Формат : UTF-8
    Идентификатор кодека : S_TEXT/UTF8
    Идентификатор кодека/Информация : UTF-8 Plain Text
    Заголовок : English
    Язык : English
    Default : Нет
    Forced : Нет
    Меню
    00:00:00.000 : en:Logos/Credits
    00:02:19.556 : en:Puffballs
    00:04:39.445 : en:Burning the Witch of Winter
    00:09:51.799 : en:Smoldering in the Ashes
    00:11:43.994 : en:The Lawyer
    00:13:23.052 : en:The School
    00:21:17.651 : en:Volpina and Poetry
    00:23:30.992 : en:Table Mannerisms
    00:30:43.591 : en:Following Gradisca\'s Derriere
    00:35:04.143 : en:Touching Confessions
    00:40:52.533 : en:Parading Fascists
    00:46:40.672 : en:The Internationale
    00:50:17.347 : en:Something to Drink?
    00:56:00.774 : en:The Grand Hotel
    01:04:38.749 : en:Il Bel Mondo Cha Cha Cha
    01:07:48.064 : en:Uncle Teo
    01:14:47.691 : en:I Want a Woman!
    01:22:53.259 : en:Il Rex
    01:29:55.390 : en:Floating in the Fog
    01:38:04.211 : en:An Uplifting Experience
    01:44:01.235 : en:Snowfall
    01:48:47.604 : en:A Visit to the Hospital
    01:50:35.670 : en:The Peacock
    01:52:24.863 : en:The Funeral
    01:58:12.251 : en:Gradisca Finds Her Gary Cooper


    Скриншоты для ознакомления




    Онлайн видео Амаркорд



    Амаркорд/Amarcord (1973) BDRip [H.264]
    загрузка...
    Рейтинг →
     (голосов: 1, оценка 4/5, голосовать можно 1 раз )

    Другие торренты по теме:



      Комментарии (0):

      Информация

      Информация

        Посетители, находящиеся в группе Гости, не могут оставлять комментарии в данной новости.

        ↓ Меню




        ↓ Опрос

        Вы добавили сайт в закладки?
        Да
        Нет


        Top 10 за месяц (Фильмы)