.
Авторизация | Регистрация
Хочешь лучшие торренты? Добавь свой email!
Добавить

Торрент скачать бесплатно

» » Агенты Щ.И.Т. / Agents of S.H.I.E.L.D. (2016) WEB-DL [H.264 / 1080p -LQ] (сезон 4, серии 1 из 22) [EN / EN, RU SUB] ( обновляемая ) торрент скачать бесплатно




    Агенты Щ.И.Т. / Agents of S.H.I.E.L.D. (2016) WEB-DL [H.264 / 1080p -LQ] (сезон 4, серии 1 из 22) [EN / EN, RU SUB] ( обновляемая ) торрент скачать бесплатно

    Опубликовал: Админ | Дата: 29-09-2016, 04:00 | Просмотров: 19

    Производство: США/ABC Studios, Marvel Studios, Mutant Enemy
    Жанр: фантастика, боевик, триллер, драма
    Режиссер: Винс Мисиано, Билл Джирхарт, Кевин Танчароэн

    Актеры
    Кларк Грегг, Минг-На, Бретт Далтон, Хлоя Беннет, Йен де Кестекер, Элизабет Хенстридж, Ник Блад, Эдрианн Палики, Генри Симмонс, Люк Митчелл и др.

    Описание

    Действия сериала разворачиваются после событий фильма Мстители. Самое интересное в это истории, что об этом Лукашенко ничего не знал. Агент Фил Колсон возвращается в правоохранительную организацию под названием Щ. И. Т., собрав небольшую команду профессионалов, он начинает работу над новыми делами, которые порой бывают очень странными.

    Возраст: 12+ (зрителям, достигшим 12 лет)
    Продолжительность: ~00: 43: 00 серия
    Качество видео: WEB-DL
    Перевод: отсутствует
    Язык: английский
    Вид субтитров: вшитые отключаемые
    Язык субтитров: русский (Нотабеноид), английский
    Видео: AVC/H.264, 1920x1080 (16: 9), ~5100 Kbps
    Аудио 1 Eng: AAC, 2 ch, 124 Kbps, VBR
    Аудио 2 Eng: AC-3, 6 ch, 384 Kbps, CBR
    Код:

    General
    Unique ID : 237474244445352980449676819348165605902 (0xB2A7E037099282178CD27C62F369BA0E)
    Complete name : E:DownloadsАгенты Щ.И.Т. Rus SubMarvel\'s Agents of S.H.I.E.L.D S04E01 The Ghost.mkv
    Format : Matroska
    Format version : Version 4/Version 2
    File size : 1.70 GiB
    Duration : 43 min
    Overall bit rate : 5 673 kb/s
    Encoded date : UTC 2016-09-28 14:55:26
    Writing application : mkvmerge v9.4.2 (\'So High\') 64bit
    Writing library : libebml v1.3.4 + libmatroska v1.4.5
    Video
    ID : 2
    Format : AVC
    Format/Info : Advanced Video Codec
    Format profile : High@L4
    Format settings, CABAC : Yes
    Format settings, ReFrames : 4 frames
    Codec ID : V_MPEG4/ISO/AVC
    Duration : 43 min
    Bit rate : 5 162 kb/s
    Width : 1 920 pixels
    Height : 1 080 pixels
    Display aspect ratio : 16:9
    Frame rate mode : Constant
    Frame rate : 23.976 (23976/1000) FPS
    Color space : YUV
    Chroma subsampling : 4:2:0
    Bit depth : 8 bits
    Scan type : Progressive
    Bits/(Pixel*Frame) : 0.104
    Stream size : 1.55 GiB (91%)
    Language : English
    Default : Yes
    Forced : No
    Color range : Limited
    Color primaries : BT.709
    Transfer characteristics : BT.709
    Matrix coefficients : BT.709
    Audio #1
    ID : 1
    Format : AAC
    Format/Info : Advanced Audio Codec
    Format profile : LC
    Codec ID : A_AAC
    Duration : 43 min
    Bit rate : 124 kb/s
    Channel(s) : 2 channels
    Channel positions : Front: L R
    Sampling rate : 48.0 kHz
    Frame rate : 46.875 FPS (1024 spf)
    Compression mode : Lossy
    Stream size : 38.1 MiB (2%)
    Language : English
    Default : Yes
    Forced : No
    Audio #2
    ID : 3
    Format : AC-3
    Format/Info : Audio Coding 3
    Mode extension : CM (complete main)
    Format settings, Endianness : Big
    Codec ID : A_AC3
    Duration : 43 min
    Bit rate mode : Constant
    Bit rate : 384 kb/s
    Channel(s) : 6 channels
    Channel positions : Front: L C R, Side: L R, LFE
    Sampling rate : 48.0 kHz
    Frame rate : 31.250 FPS (1536 spf)
    Compression mode : Lossy
    Stream size : 118 MiB (7%)
    Language : English
    Default : No
    Forced : No
    Text #1
    ID : 4
    Format : UTF-8
    Codec ID : S_TEXT/UTF8
    Codec ID/Info : UTF-8 Plain Text
    Duration : 41 min
    Bit rate : 107 b/s
    Count of elements : 808
    Stream size : 33.1 KiB (0%)
    Title : Original
    Language : English
    Default : No
    Forced : No
    Text #2
    ID : 5
    Format : UTF-8
    Codec ID : S_TEXT/UTF8
    Codec ID/Info : UTF-8 Plain Text
    Duration : 41 min
    Bit rate : 133 b/s
    Count of elements : 612
    Stream size : 40.7 KiB (0%)
    Title : Notabenoid
    Language : Russian
    Default : Yes
    Forced : No


    Скриншоты для ознакомления




    Онлайн видео Агенты Щ.И.Т.



    Агенты Щ.И.Т./Agents of S.H.I.E.L.D. (2016) WEB-DL [H.264/1080p -LQ] (сезон 4, серии 1 из 22) [EN/ EN, RU SUB] ( обновляемая )
    загрузка...
    Рейтинг →
     (голосов: 1, оценка 5/5, голосовать можно 1 раз )

    Другие торренты по теме:

  • Тайные агенты / Agents Secrets (2004) DVDRip
  • Халк и агенты СМЭШ (Халк и агенты У.Д.А.Р.) (Сезон 1, Серия: 1-26 из 26) / Hulk and the Agents of S.M.A.S.H. (2013) WEB-DLRip скачать через торрент бесплатно
  • Халк и агенты СМЭШ (Халк и агенты У.Д.А.Р.) (Сезон 2, Серия: 1- из ) / Hulk and the Agents of S.M.A.S.H. (2014) WEB-DLRip (Обновляемая) скачать через торрент бесплатно
  • Халк и агенты СМЭШ (Халк и агенты У.Д.А.Р.) (Сезон 2, Серия: 1-2, 04-06 из ) / Hulk and the Agents of S.M.A.S.H. (2014) WEB-DL [1080p] (Обновляемая) скачать через торрент бесплатно
  • Агенты Щ.И.Т. / Agents of S.H.I.E.L.D. (2014) WEB-DL [H.264 / 720p-LQ] (Сезон 2, серия 1 из ) (LostFilm) (обновляемая)
  • Агенты Щ.И.Т. / Agents of S.H.I.E.L.D. (2014) WEB-DLRip (сезон 2, серии 1 из ) LostFilm (oбновляемая)
  • Агенты Щ.И.Т. (Agents of S.H.I.E.L.D.) / (Сезон 1-2, серии 1-23 из 44) LostFilm (2013-2014) [MP4|720x400] <WEB-DLRip [H.264]>
  • Агенты Щ.И.Т. / Agents of S.H.I.E.L.D. (2014) WEB-DL [H.264 / 1080p-LQ] (Сезон 2, серия 1 из ) (LostFilm) (обновляемая)


    • Комментарии (0):

      Информация

      Информация

        Посетители, находящиеся в группе Гости, не могут оставлять комментарии в данной новости.

        ↓ Меню




        ↓ Опрос

        Вы добавили сайт в закладки?
        Да
        Нет


        Top 10 за месяц (Фильмы)