.
Авторизация | Регистрация
Хочешь лучшие торренты? Добавь свой email!
Добавить

Торрент скачать бесплатно

» » Дамы приглашают кавалеров (1980) HDRip [H.264] торрент скачать бесплатно




    Дамы приглашают кавалеров (1980) HDRip [H.264] торрент скачать бесплатно

    Опубликовал: Админ | Дата: 29-09-2016, 04:00 | Просмотров: 15

    Производство: СССР, Мосфильм
    Жанр: Комедия, Мелодрама
    Режиссер: Иван Киасашвили

    Актеры
    Марина Неёлова, Леонид Куравлёв, Татьяна Божок, Наталья Андрейченко, Александр Фатюшин, Мария Виноградова, Николай Скоробогатов, Николай Караченцов, Гия Перадзе, Валерий Носик, Пётр Олев

    Описание

    Любимый муж, дети, тихое семейное счастье — об этом мечтает героиня фильма. Она просто создана для такой жизни — однако ей почему-то не везет. Нет, она не ждет сказочного принца, может многое простить. Только вот без любви и понимания обойтись не в силах…

    Возраст: 12+ (зрителям, достигшим 12 лет)
    Релиз от: smithland
    Продолжительность: 01: 11: 58
    Качество видео: HDRip
    Видео: AVC/H.264, 878x630, ~1750 Kbps
    Аудио: AC3, 2 ch, 256 kbps, CBR
    Код:

    General
    Unique ID : 248094947134044769452904646024959158117 (0xBAA559493B122B91B99F7EC96C58E765)
    Complete name : Дамы приглашают кавалеров.mkv
    Format : Matroska
    Format version : Version 4/Version 2
    File size : 1.01 GiB
    Duration : 1h 11mn
    Overall bit rate : 2 004 Kbps
    Movie name : Дамы приглашают кавалеров (rip by smithland)
    Encoded date : UTC 2016-09-28 13:44:15
    Writing application : mkvmerge v9.4.2 (\'So High\') 64bit
    Writing library : libebml v1.3.4 + libmatroska v1.4.5
    Attachements : COVER.jpg
    Video
    ID : 1
    Format : AVC
    Format/Info : Advanced Video Codec
    Format profile : High@L4
    Format settings, CABAC : Yes
    Format settings, ReFrames : 10 frames
    Codec ID : V_MPEG4/ISO/AVC
    Duration : 1h 11mn
    Bit rate : 1 750 Kbps
    Width : 878 pixels
    Height : 630 pixels
    Display aspect ratio : 1.394
    Frame rate mode : Constant
    Frame rate : 25.000 fps
    Color space : YUV
    Chroma subsampling : 4:2:0
    Bit depth : 8 bits
    Scan type : Progressive
    Bits/(Pixel*Frame) : 0.127
    Stream size : 879 MiB (85%)
    Writing library : x264 core 148 r2705 3f5ed56
    Encoding settings : cabac=1/ref=10/deblock=1:-2:0/analyse=0x3:0x133/me=umh/subme=11/psy=1/psy_rd=1.10:0.25/mixed_ref=1/me_range=32/chroma_me=1/trellis=2/8x8dct=1/cqm=0/deadzone=21, 11/fast_pskip=1/chroma_qp_offset=-4/threads=12/lookahead_threads=1/sliced_threads=0/nr=0/decimate=0/interlaced=0/bluray_compat=0/constrained_intra=0/bframes=6/b_pyramid=2/b_adapt=1/b_bias=0/direct=1/weightb=1/open_gop=0/weightp=2/keyint=250/keyint_min=25/scenecut=40/intra_refresh=0/rc_lookahead=40/rc=abr/mbtree=1/bitrate=1750/ratetol=1.0/qcomp=0.60/qpmin=0/qpmax=69/qpstep=4/vbv_maxrate=25000/vbv_bufsize=31250/nal_hrd=none/filler=0/ip_ratio=1.40/aq=1:1.00
    Language : Russian
    Default : Yes
    Forced : Yes
    Color range : Limited
    Color primaries : BT.709
    Transfer characteristics : BT.709
    Matrix coefficients : BT.709
    DURATION : 01:11:58.000000000
    NUMBER_OF_FRAMES : 107950
    NUMBER_OF_BYTES : 942297750
    _STATISTICS_WRITING_APP : mkvmerge v9.4.2 (\'So High\') 64bit
    Audio
    ID : 2
    Format : AC-3
    Format/Info : Audio Coding 3
    Mode extension : CM (complete main)
    Format settings, Endianness : Big
    Codec ID : A_AC3
    Duration : 1h 11mn
    Bit rate mode : Constant
    Bit rate : 256 Kbps
    Channel(s) : 2 channels
    Channel positions : Front: L R
    Sampling rate : 48.0 KHz
    Compression mode : Lossy
    Delay relative to video : -5ms
    Stream size : 132 MiB (13%)
    Title : Stereo
    Language : Russian
    Default : Yes
    Forced : Yes
    DURATION : 01:11:57.984000000
    NUMBER_OF_FRAMES : 134937
    NUMBER_OF_BYTES : 138175488


    Скриншоты для ознакомления




    Дамы приглашают кавалеров (1980) HDRip [H.264]
    загрузка...
    Рейтинг →
     (голосов: 1, оценка 3/5, голосовать можно 1 раз )

    Другие торренты по теме:

  • Дамы приглашают кавалеров (1980) DVDRip [H.264] [Реставрация КП] скачать через торрент бесплатно


    • Комментарии (0):

      Информация

      Информация

        Посетители, находящиеся в группе Гости, не могут оставлять комментарии в данной новости.

        ↓ Меню




        ↓ Опрос

        Вы добавили сайт в закладки?
        Да
        Нет


        Top 10 за месяц (Фильмы)