.
Авторизация | Регистрация
Хочешь лучшие торренты? Добавь свой email!
Добавить

Торрент скачать бесплатно

» » Бесстыдники / Бесстыжие / Shameless (US) (2016) HDTVRip (сезон 7, серии 1 из 12) AlexFilm (обновляемая) торрент скачать бесплатно




    Бесстыдники / Бесстыжие / Shameless (US) (2016) HDTVRip (сезон 7, серии 1 из 12) AlexFilm (обновляемая) торрент скачать бесплатно

    Опубликовал: Админ | Дата: 27-09-2016, 04:01 | Просмотров: 7

    Производство: США/Bonanza Productions, John Wells Productions, Warner Bros. Television
    Жанр: драма, комедия
    Режиссер: Кристофер Чулак, Эмми Россам

    Актеры
    Эмми Россам, Уильям Х. Мэйси, Шанола Хэмптон, Стив Хоуи, Джереми Аллен Уайт, Камерон Монахэн, Эмма Кинни, Итан Каткоски, Джоан Кьюсак, Лаура Уиггинс и др.

    Описание

    Курсы плавания от Фрэнка, излечение от алкоголизма с Липом, адаптация к ранней беременности по методу Дебби, овладение ресторанном делом с Фионой и многое другое ждёт вас в новом сезон любимого сериалае о похождениях самой интересной семьи на свете. Галлагеры вернулись, а значит, осень в этом году скучной не будет точно!

    Продолжительность: ~00: 55: 00 серия
    Качество видео: HDTVRip
    Перевод: Многоголосый закадровый, профессиональный -AlexFilm
    Автор перевода: Александр Митраков
    Озвучка: Евгения Тихонова, Анастасия Флигина, Константин Погодаев, Александр Дасевич, Михаил Суслов
    Внимание! Присутствуют сцены с обнаженной натурой и ненормативная лексика.
    Видео: XviD, 720x400 (16: 9), ~1400 kbps
    Аудио Rus: MP3, 48, 0 kHz, 2 ch, 128 kbps — многоголосый закадровый
    Аудио Eng: MP3, 48, 0 kHz, 2 ch, 128 kbps — оригинал
    Код:

    Общее
    Полное имя : D:Бесстыжие (сезон любимого сериала 7) Shameless (2016) HDTVRip - AlexFilmShameless.US.s06e01.HDTVRip.Rus.Eng.AlexFilm.avi
    Формат : AVI
    Формат/Информация : Audio Video Interleave
    Размер файла : 658 Мбайт
    Продолжительность : 55 м. 0 с.
    Общий поток : 1672 Кбит/сек
    Название фильма : Shameless US 7x01 @ AlexFilm
    Программа кодирования : VirtualDubMod 1.5.10.2 (build 2540/release)
    Библиотека кодирования : VirtualDubMod build 2540/release
    Видео
    Идентификатор : 0
    Формат : MPEG-4 Visual
    Профиль формата : Advanced Simple@L5
    Параметр BVOP формата : Нет
    Параметр QPel формата : Нет
    Параметр GMC формата : Без точки перехода
    Параметр матрицы формата : Default (MPEG)
    Идентификатор кодека : XVID
    Идентификатор кодека/Подсказка : XviD
    Продолжительность : 55 м. Белая горячка, сказал кто то из толпы, к чему не понятно. 0 с.
    Битрейт : 1402 Кбит/сек
    Ширина : 720 пикселей
    Высота : 400 пикселей
    Соотношение сторон : 16:9
    Частота кадров : 23, 976 (23976/1000) кадра/сек
    Цветовое пространство : YUV
    Субдискретизация насыщенности : 4:2:0
    Битовая глубина : 8 бит
    Тип развёртки : Прогрессивная
    Метод сжатия : С потерями
    Бит/(Пиксели*Кадры) : 0.203
    Размер потока : 552 Мбайт (84%)
    Библиотека кодирования : XviD 73
    Аудио #1
    Идентификатор : 1
    Формат : MPEG Audio
    Версия формата : Version 1
    Профиль формата : Layer 3
    Режим : Joint stereo
    Расширение режима : MS Stereo
    Идентификатор кодека : 55
    Идентификатор кодека/Подсказка : MP3
    Продолжительность : 55 м. 0 с.
    Вид битрейта : Постоянный
    Битрейт : 128 Кбит/сек
    Каналы : 2 канала
    Частота : 48, 0 КГц
    Метод сжатия : С потерями
    Размер потока : 50, 4 Мбайт (8%)
    Выравнивание : Соединение по промежуткам
    Продолжительность промежутка : 42 мс. (1, 00 видеокадр)
    Время предзагрузки промежутка : 504 мс.
    Заголовок : Russian (AlexFilm)
    Библиотека кодирования : LAME3.99r
    Настройки программы : -m j -V 4 -q 3 -lowpass 18 -b 128
    Аудио #2
    Идентификатор : 2
    Формат : MPEG Audio
    Версия формата : Version 1
    Профиль формата : Layer 3
    Режим : Joint stereo
    Идентификатор кодека : 55
    Идентификатор кодека/Подсказка : MP3
    Продолжительность : 55 м. 0 с.
    Вид битрейта : Постоянный
    Битрейт : 128 Кбит/сек
    Каналы : 2 канала
    Частота : 48, 0 КГц
    Метод сжатия : С потерями
    Размер потока : 50, 4 Мбайт (8%)
    Выравнивание : Соединение по промежуткам
    Продолжительность промежутка : 42 мс. (1, 00 видеокадр)
    Время предзагрузки промежутка : 504 мс.
    Заголовок : English
    Библиотека кодирования : LAME3.90.3


    Скриншоты для ознакомления




    Онлайн видео Бесстыдники



    Бесстыдники/Бесстыжие/Shameless (US) (2016) HDTVRip (сезон 7, серии 1 из 12) AlexFilm (обновляемая)
    загрузка...
    Рейтинг →
     (голосов: 1, оценка 5/5, голосовать можно 1 раз )

    Другие торренты по теме:

  • Бесстыдники / Бесстыжие / Shameless (US) (2016) HDTVRip [H.264 / 720p-LQ] (сезон 6, серии 1 из 12) AlexFilm (обновляемая) скачать через торрент бесплатно
  • Бесстыдники / Бесстыжие / Shameless (US) (2016) HDTVRip (сезон 6, серии 1 из 12) AlexFilm (обновляемая) скачать через торрент бесплатно
  • Бесстыдники / Бесстыжие / Shameless (US) (2016) HDTVRip (сезон 6, серии 1-9 из 12) (AlexFilm) (обновляемая)
  • Бесстыдники / Бесстыжие / Shameless (US) (2016) HDTVRip [H.264 / 720p-LQ] (сезон 7, серия 1 из 12) AlexFilm (обновляемая)
  • Бесстыдники / Бесстыжие / Shameless (US) (2017) WEB-DL [H.264 / 720p-LQ] (сезон 8, серии 1 из 12) AlexFilm (обновляемая)
  • Бесстыдники / Бесстыжие / Shameless (US) (2017) WEB-DLRip (сезон 8, серии 1-2 из 12) AlexFilm (Обновляемая)


    • Комментарии (0):

      Информация

      Информация

        Посетители, находящиеся в группе Гости, не могут оставлять комментарии в данной новости.

        ↓ Меню




        ↓ Опрос

        Вы добавили сайт в закладки?
        Да
        Нет


        Top 10 за месяц (Фильмы)