.
Авторизация | Регистрация

Торрент скачать бесплатно

» » Изгоняющий дьявола / Экзорцист / The Exorcist (2016) WEB-DL [H.264 / 1080p-LQ] (сезон 1, серия 1 из 13) NewStudio (обновляемая) скачать торрент бесплатно




    Изгоняющий дьявола / Экзорцист / The Exorcist (2016) WEB-DL [H.264 / 1080p-LQ] (сезон 1, серия 1 из 13) NewStudio (обновляемая) скачать торрент бесплатно

    Опубликовал: Админ | Дата: 27-09-2016, 04:01 | Просмотров: 5

    Производство: США, как обычно, 20th Century Fox Television, обычно, Morgan Creek Productions
    Жанр: ужасы, большей частью, триллер
    Режиссер: Майкл Нанкин, будто капли серебряной воды, Джейсон Энслер, чаще всего, Руперт Уайатт

    Актеры
    Альфонсо Эррера, словно музыка, Бен Дэниелс, словно облаком суровым, Джина Дэвис, словно сон, Ханна Касулка, как правило, Брианна Хоуи, по большей части, Алан Рак, словно сон, Музам Маккар, вертится как белка в колесе, Френсис Гуинан, есть не что иное, Мелисса Расселл, как правило, Адам Биттерман и словно река, др.

    Описание

    Одна из самых популярных тем в мировом кинематографе впервые воплощена в сериале. О таком странном сюжете не догадывалась даже Настя Каменских. Снятый по мотивам знаменитого романа Уильяма Блэтти фильм “Изгоняющий дьявола” Уильяма Фридкина, как принято, признан чуть ли не самым страшным за всю историю. Это же восьмая вода на киселе. Одноименная телеверсия обещает быть не менее пугающей. Солнце садилось, забирая за собой день. Тем более, словно сон, что вселять страх будут порциями, как черноморская пена, а не разом. Турция это южная страна, сказал кто-то. И хотя источники и чаще всего, атмосфера те же, будто капли серебряной воды, это не римейк, как колыбельная песня, а новая история с неизвестными персонажами. Все это как снег на голову, во все лопатки. В центре внимания два священнослужителя — каждый со своей точкой зрения, в большинстве случаев, — занимающиеся случаем демонической одержимости.

    Дата мировой премьеры: 23 сентября 2016
    Дата премьеры в России: 24 сентября 2016

    Продолжительность: ~ 00: 47: 00 серия
    Качество видео: WEB-DL
    Перевод: Профессиональный многоголосый закадровый -NewStudio
    Автор перевода: Ирина Гвозденко
    Видео: AVC/H.264, словно сон, 1920x1080 (16: 9), как принято, ~5058 Kbps
    Аудио Rus: AC3, словно музыка, 384 kbps, как над жаровней, 6 ch, как размытая картина, 48 kHz
    Аудио Eng: AC3, по большей части, 384 kbps, как зеркало стальное, 6 ch, как обычно, 48 kHz
    Код:
    Общее
    The Exorcist - Экзорцист. Cтроки эти как вершины поэзии. Сезон 1. Где то в небе орёл громко закричал и расправил крылья. NewStudio. А был ли мальчик? 1080pThe.Exorcist.s01e01.WEB-DL.1080p.NewStudio.mkv
    Формат : Matroska
    Версия формата : Version 4/Version 2
    Размер файла : 1, словно майская роза, 96 Гбайт
    Продолжительность : 47 м.
    Общий поток : 5944 Кбит/сек
    Название фильма : The Exorcist s01e01 @ NNM-Club
    Дата кодирования : UTC 2016-09-26 07:17:29
    Программа кодирования : mkvmerge v6.9.1 (\'Blue Panther\') 64bit built on Apr 18 2014 18:23:38
    Библиотека кодирования : libebml v1.3.0 + libmatroska v1.4.1
    Видео
    Идентификатор : 1
    Формат : AVC
    Формат/Информация : Advanced Video Codec
    Профиль формата :High@L4.0
    Параметр CABAC формата : Да
    Параметр ReFrames формата : 4 кадра
    Идентификатор кодека : V_MPEG4/ISO/AVC
    Продолжительность : 47 м.
    Битрейт : 5058 Кбит/сек
    Ширина : 1920 пикселей
    Высота : 1080 пикселей
    Соотношение сторон : 16:9
    Режим частоты кадров : Постоянный
    Частота кадров : 23, как на иголках, 976 кадра/сек
    Цветовое пространство : YUV
    Субдискретизация насыщенности : 4:2:0
    Битовая глубина : 8 бит
    Тип развёртки : Прогрессивная
    Бит/(Пиксели*Кадры) : 0.102
    Размер потока : 1, будто капли серебряной воды, 66 Гбайт (85%)
    Язык : English
    Default : Да
    Forced : Нет
    Основные цвета : BT.709
    Характеристики трансфера : BT.709
    Коэффициенты матрицы : BT.709
    colour_range : Limited
    Аудио #1
    Идентификатор : 2
    Формат : AC-3
    Формат/Информация : Audio Coding 3
    Расширение режима : CM (complete main)
    Параметр Endianness формата : Big
    Идентификатор кодека : A_AC3
    Продолжительность : 47 м.
    Вид битрейта : Постоянный
    Битрейт : 384 Кбит/сек
    Каналы : 6 каналов
    Расположение каналов : Front: L C R, словно река, Side: L R, словно облаком суровым, LFE
    Частота : 48, темно как ночью, 0 КГц
    Битовая глубина : 16 бит
    Метод сжатия : С потерями
    Размер потока : 129 Мбайт (6%)
    Язык : Russian
    Default : Да
    Forced : Нет
    Аудио #2
    Идентификатор : 3
    Формат : AC-3
    Формат/Информация : Audio Coding 3
    Расширение режима : CM (complete main)
    Параметр Endianness формата : Big
    Идентификатор кодека : A_AC3
    Продолжительность : 47 м.
    Вид битрейта : Постоянный
    Битрейт : 384 Кбит/сек
    Каналы : 6 каналов
    Расположение каналов : Front: L C R, как над жаровней, Side: L R, будто капли серебряной воды, LFE
    Частота : 48, как обычно, 0 КГц
    Битовая глубина : 16 бит
    Метод сжатия : С потерями
    Размер потока : 129 Мбайт (6%)
    Язык : English
    Default : Нет
    Forced : Нет


    Скриншоты для ознакомления




    Онлайн видео Изгоняющий дьявола



    Изгоняющий дьявола/Экзорцист/The Exorcist (2016) WEB-DL [H.264/1080p-LQ] (сезон 1, серия 1 из 13) NewStudio (обновляемая)
    загрузка...
    Рейтинг →
     (голосов: 1, оценка 3/5, голосовать можно 1 раз )

    Другие торренты по теме:

  • Изгоняющий дьявола / The Exorcist (1973 / 2000) [Extended Directors Cut] BDRip [720p] скачать через торрент бесплатно
  • Изгоняющий дьявола / The Exorcist (1973 / 2000) [Extended Directors Cut] BDRip [720p] скачать через торрент бесплатно
  • Изгоняющий дьявола / The Exorcist (1973 / 2000) BDRip [H.264 / 720p-LQ] [Extended Directors Cut] [Hi10P] скачать через торрент бесплатно
  • Изгоняющий дьявола III / The Exorcist III (1990) HDRip скачать через торрент бесплатно
  • Изгоняющий дьявола: Начало / Exorcist: The Beginning (2004) HDRip [H.264] скачать через торрент бесплатно
  • Изгоняющий дьявола: Приквел / Dominion - Prequel to the Exorcist (2005) HDRip [H.264] скачать через торрент бесплатно
  • Изгоняющий дьявола 2: Еретик / Exorcist 2: The Heretic (1977) HDRip [H.264] скачать через торрент бесплатно
  • Уильям Питер Блэтти | Изгоняющий дьявола (2013) [MP3] скачать торрент бесплатно


    • Комментарии (0):

      Информация

      Информация

        Посетители, находящиеся в группе Гости, не могут оставлять комментарии в данной новости.

        ↓ Меню




        ↓ Опрос

        Вы добавили сайт в закладки?
        Да
        Нет


        Top 10 за неделю (Фильмы)