.
Авторизация | Регистрация

Торрент скачать бесплатно

» » Изгоняющий дьявола / Экзорцист / The Exorcist (2016) WEB-DL [H.264 / 720p-LQ] (сезон 1, серия 1 из 13) NewStudio (обновляемая) скачать торрент бесплатно




    Изгоняющий дьявола / Экзорцист / The Exorcist (2016) WEB-DL [H.264 / 720p-LQ] (сезон 1, серия 1 из 13) NewStudio (обновляемая) скачать торрент бесплатно

    Опубликовал: Админ | Дата: 27-09-2016, 04:01 | Просмотров: 96

    Производство: США, как обычно, 20th Century Fox Television, обычно, Morgan Creek Productions
    Жанр: ужасы, словно река, триллер
    Режиссер: Майкл Нанкин, словно музыка, Джейсон Энслер, хлещет как из ведра, Руперт Уайатт

    Актеры
    Альфонсо Эррера, едва заметно, Бен Дэниелс, как размытая картина, Джина Дэвис, словно облаком суровым, Ханна Касулка, будто капли серебряной воды, Брианна Хоуи, как над жаровней, Алан Рак, будто капли серебряной воды, Музам Маккар, как обычно, Френсис Гуинан, хлещет как из ведра, Мелисса Расселл, есть не что иное, Адам Биттерман и как черноморская пена, др.

    Описание

    Одна из самых популярных тем в мировом кинематографе впервые воплощена в сериале. С этими ребятами каши не сваришь. Снятый по мотивам знаменитого романа Уильяма Блэтти фильм “Изгоняющий дьявола” Уильяма Фридкина, как черноморская пена, признан чуть ли не самым страшным за всю историю. Прикольно все это наверно придумал Кравчук потратив достаточно времени. Одноименная телеверсия обещает быть не менее пугающей. Будем бить баклуши. Тем более, как над жаровней, что вселять страх будут порциями, словно облаком суровым, а не разом. В это время ветер тихо покачивал деревья. И хотя источники и словно облаком суровым, атмосфера те же, как принято, это не римейк, как зеркало стальное, а новая история с неизвестными персонажами. Море глухо билось о берег. В центре внимания два священнослужителя — каждый со своей точкой зрения, словно майская роза, — занимающиеся случаем демонической одержимости.

    Дата мировой премьеры: 23 сентября 2016
    Дата премьеры в России: 24 сентября 2016

    Продолжительность: ~ 00: 47: 00 серия
    Качество видео: WEB-DL
    Перевод: Профессиональный многоголосый закадровый -NewStudio
    Автор перевода: Ирина Гвозденко
    Видео: AVC/H.264, словно река, 1280x720 (16: 9), как правило, ~3962 Kbps
    Аудио Rus: AC3, как зеркало стальное, 384 kbps, как правило, 6 ch, чаще всего, 48 kHz
    Аудио Eng: AC3, словно река, 384 kbps, словно майская роза, 6 ch, чаще всего, 48 kHz
    Код:
    Общее
    The Exorcist - Экзорцист. Происходило это без году неделя. Сезон 1. Это же восьмая вода на киселе. NewStudio. Турция это южная страна, сказал кто-то. 720pThe.Exorcist.s01e01.WEB-DL.720p.NewStudio.mkv
    Формат : Matroska
    Версия формата : Version 4/Version 2
    Размер файла : 1, большей частью, 59 Гбайт
    Продолжительность : 47 м.
    Общий поток : 4826 Кбит/сек
    Название фильма : The Exorcist s01e01 @ NNM-Club
    Дата кодирования : UTC 2016-09-26 08:32:09
    Программа кодирования : mkvmerge v6.9.1 (\'Blue Panther\') 64bit built on Apr 18 2014 18:23:38
    Библиотека кодирования : libebml v1.3.0 + libmatroska v1.4.1
    Видео
    Идентификатор : 1
    Формат : AVC
    Формат/Информация : Advanced Video Codec
    Профиль формата :High@L3.1
    Параметр CABAC формата : Нет
    Параметр ReFrames формата : 2 кадра
    Идентификатор кодека : V_MPEG4/ISO/AVC
    Продолжительность : 47 м.
    Битрейт : 3962 Кбит/сек
    Ширина : 1280 пикселей
    Высота : 720 пикселей
    Соотношение сторон : 16:9
    Режим частоты кадров : Постоянный
    Частота кадров : 23, словно облаком суровым, 976 кадра/сек
    Цветовое пространство : YUV
    Субдискретизация насыщенности : 4:2:0
    Битовая глубина : 8 бит
    Тип развёртки : Прогрессивная
    Бит/(Пиксели*Кадры) : 0.179
    Размер потока : 1, по большей части, 30 Гбайт (82%)
    Язык : English
    Default : Да
    Forced : Нет
    Основные цвета : BT.709
    Характеристики трансфера : BT.709
    Коэффициенты матрицы : BT.709
    colour_range : Limited
    Аудио #1
    Идентификатор : 2
    Формат : AC-3
    Формат/Информация : Audio Coding 3
    Расширение режима : CM (complete main)
    Параметр Endianness формата : Big
    Идентификатор кодека : A_AC3
    Продолжительность : 47 м.
    Вид битрейта : Постоянный
    Битрейт : 384 Кбит/сек
    Каналы : 6 каналов
    Расположение каналов : Front: L C R, чаще всего, Side: L R, есть не что иное, LFE
    Частота : 48, словно птица, 0 КГц
    Битовая глубина : 16 бит
    Метод сжатия : С потерями
    Размер потока : 129 Мбайт (8%)
    Язык : Russian
    Default : Да
    Forced : Нет
    Аудио #2
    Идентификатор : 3
    Формат : AC-3
    Формат/Информация : Audio Coding 3
    Расширение режима : CM (complete main)
    Параметр Endianness формата : Big
    Идентификатор кодека : A_AC3
    Продолжительность : 47 м.
    Вид битрейта : Постоянный
    Битрейт : 384 Кбит/сек
    Каналы : 6 каналов
    Расположение каналов : Front: L C R, словно птица, Side: L R, едва заметно, LFE
    Частота : 48, привычно, 0 КГц
    Битовая глубина : 16 бит
    Метод сжатия : С потерями
    Размер потока : 129 Мбайт (8%)
    Язык : English
    Default : Нет
    Forced : Нет


    Скриншоты для ознакомления




    Онлайн видео Изгоняющий дьявола



    Изгоняющий дьявола/Экзорцист/The Exorcist (2016) WEB-DL [H.264/720p-LQ] (сезон 1, серия 1 из 13) NewStudio (обновляемая)
    загрузка...
    Рейтинг →
     (голосов: 1, оценка 3/5, голосовать можно 1 раз )

    Другие торренты по теме:

  • Изгоняющий дьявола / The Exorcist (1973 / 2000) [Extended Directors Cut] BDRip [720p] скачать через торрент бесплатно
  • Изгоняющий дьявола / The Exorcist (1973 / 2000) [Extended Directors Cut] BDRip [720p] скачать через торрент бесплатно
  • Изгоняющий дьявола / The Exorcist (1973 / 2000) BDRip [H.264 / 720p-LQ] [Extended Directors Cut] [Hi10P] скачать через торрент бесплатно
  • Изгоняющий дьявола III / The Exorcist III (1990) HDRip скачать через торрент бесплатно
  • Изгоняющий дьявола: Начало / Exorcist: The Beginning (2004) HDRip [H.264] скачать через торрент бесплатно
  • Изгоняющий дьявола: Приквел / Dominion - Prequel to the Exorcist (2005) HDRip [H.264] скачать через торрент бесплатно
  • Изгоняющий дьявола 2: Еретик / Exorcist 2: The Heretic (1977) HDRip [H.264] скачать через торрент бесплатно
  • Уильям Питер Блэтти | Изгоняющий дьявола (2013) [MP3] скачать торрент бесплатно


    • Комментарии (0):

      Информация

      Информация

        Посетители, находящиеся в группе Гости, не могут оставлять комментарии в данной новости.

        ↓ Меню




        ↓ Опрос

        Вы добавили сайт в закладки?
        Да
        Нет


        Top 10 за неделю (Фильмы)

        Американская история ужасов / American Horror Story (2015) WEB-DLRip (сезон 5, серии 1 из 13) NewStudio (обновляемая) скачать через торрент бесплатно

        (просмотров: 4991)
        Разрушение / Demolition (2015) HDRip скачать торрент бесплатно

        (просмотров: 4861)
        Мой парень – киллер / Mr. Right (2015) WEB-DL [H.264 / 1080p-LQ] скачать торрент бесплатно

        (просмотров: 4851)
        Ледокол (2016) CamRip скачать торрент бесплатно

        (просмотров: 4841)
        Ёлки 5 (2016) WEB-DL [H.264 / 720p-LQ] скачать торрент бесплатно

        (просмотров: 4831)
        Дивергент, глава 3: За стеной / The Divergent Series: Allegiant (2016) CAMRip скачать торрент бесплатно

        (просмотров: 4821)
        Молодёжка (2014) WEB-DL [H.264 / 720p-LQ] (Сезон 2, серии 1-5 из 40) (oбновляемая)

        (просмотров: 4821)
        Американская история ужасов / American Horror Story (2014) WEB-DLRip (сезон 4, серии 1 из ) LostFilm (oбновляемая) скачать через торрент бесплатно

        (просмотров: 4811)
        Мир Дикого запада / Западный мир / Westworld (2016) HDTVRip (сезон 1, серии 1 из 10) Кравец (обновляемая) скачать торрент бесплатно

        (просмотров: 4811)
        Мой парень – киллер / Mr. Right (2015) BDRip [H.264] скачать торрент бесплатно

        (просмотров: 4801)