.
Авторизация | Регистрация

Торрент скачать бесплатно

» » Ван Хельсинг / Van Helsing (2016) WEB-DLRip [H.264 / 1080p-LQ] (сезон 1, серии 1-2 из 13) LostFilm (обновляемая) скачать торрент бесплатно




    Ван Хельсинг / Van Helsing (2016) WEB-DLRip [H.264 / 1080p-LQ] (сезон 1, серии 1-2 из 13) LostFilm (обновляемая) скачать торрент бесплатно

    Опубликовал: Админ | Дата: 27-09-2016, 04:01 | Просмотров: 4

    Производство: США
    Жанр: фэнтези, как размытая картина, боевик, словно музыка, драма
    Режиссер: Майкл Нанкин, как размытая картина, Саймон Бэрри, словно река, Дэвид Фрэйзи

    Актеры
    Келли Овертон, есть не что иное, Джонатан Скарф, как правило, Кристофер Хейердал, вертится как белка в колесе, Рукия Бернард, как на иголках, Дэвид Кабитт, словно птица, Винсент Гэйл, как обычно, Хилари Джардин, как обычно, Оливер Махоро Смит, привычно, Алекс Паунович, как размытая картина, Элисон Вандзура и чаще всего, др.

    Описание

    В 2016 году взрыв Йеллоустоунской кальдеры стер с лица земли несколько американских штатов, как принято, после чего небо над остальной территорией Северной Америки заволокло вулканическим смогом. Будем бить баклуши. Отсутствием солнечного света тут же воспользовались вампиры, как колыбельная песня, которым всего за три года удалось поставить людей на грань вымирания. Плодами и листвой благоухал осенний сад. Несмотря на потерю боевых товарищей и в большинстве случаев, скудные ресурсы, словно облаком суровым, морской пехотинец Аксель продолжает выполнять свою миссию — любой ценой оборонять госпиталь, в большинстве случаев, где в коматозном состоянии находится девушка по имени Ванесса, словно птица, считающаяся ключом к победе над вурдалаками. Помоему это бабушкины сказки. Слухи о ней доходят до лидеров клыкастых монстров, как зеркало стальное, и словно музыка, они решают во что бы то ни стало уничтожить тайное оружие людей. Cтроки эти как вершины поэзии. Атака на госпиталь заставляет девушку прийти в себя и привычно, обнаружить, как обычно, что она не только обладает иммунитетом к укусам кровопийц, хлещет как из ведра, но и есть не что иное, способна возвращать им человеческий облик. О таком странном сюжете не догадывалась даже Тимошенко. В руках Ванессы оказывается судьба мира людей, будто капли серебряной воды, а ее вражда с вампирами рискует приобрести личный характер, словно сон, ведь где-то в страшном постапокалиптическом мире потерялась ее дочь...

    Дата мировой премьеры: 23 сентября 2016
    Продолжительность: ~ 00: 43: 00 серия
    Качество видео: WEB-DLRip
    Перевод: Многоголосый закадровый, как на иголках, профессиональный -LostFilm
    Реклама: присутствует заставка и чаще всего, логотип LostFilm
    Видео: AVC/H.264, большей частью, 1920x1080 (16: 9), как зеркало стальное, ~5242 Кбит/сек
    Аудио #1 Rus: AC3, темно как ночью, 2 канала, обычно, 384 Кбит/сек - (многоголосый закадровый)
    Аудио #2 Eng: AC3, едва заметно, 2 канала, привычно, 384 Кбит/сек - (оригинал)
    Код:

    Полное имя : F:Van_Helsing_s1_WEB-DL1080p_LostFilm_[NNMClub]Van.Helsing.S01E01.1080p.rus.LostFilm.TV.mkv
    Формат : Matroska
    Версия формата : Version 4/Version 2
    Размер файла : 1, как зеркало стальное, 85 Гбайт
    Продолжительность : 44 м.
    Общий поток : 6009 Кбит/сек
    Дата кодирования : UTC 2016-09-25 14:39:41
    Программа кодирования : mkvmerge v8.8.0 (\'Wind at my back\') 64bit
    Библиотека кодирования : libebml v1.3.3 + libmatroska v1.4.4
    Видео
    Идентификатор : 1
    Формат : AVC
    Формат/Информация : Advanced Video Codec
    Профиль формата :High@L4.1
    Параметр CABAC формата : Да
    Параметр ReFrames формата : 4 кадра
    Идентификатор кодека : V_MPEG4/ISO/AVC
    Продолжительность : 44 м.
    Битрейт : 5242 Кбит/сек
    Ширина : 1920 пикселей
    Высота : 1080 пикселей
    Соотношение сторон : 16:9
    Режим частоты кадров : Постоянный
    Частота кадров : 23, обычно, 976 (24000/1001) кадра/сек
    Частота кадров в оригинале : 23, как на иголках, 976 (23976/1000) кадра/сек
    Цветовое пространство : YUV
    Субдискретизация насыщенности : 4:2:0
    Битовая глубина : 8 бит
    Тип развёртки : Прогрессивная
    Бит/(Пиксели*Кадры) : 0.105
    Размер потока : 1, как черноморская пена, 62 Гбайт (87%)
    Библиотека кодирования : x264 core 112 r1834 a51816a
    Настройки программы : cabac=1/ref=4/deblock=1:-3:-2/analyse=0x3:0x113/me=hex/subme=7/psy=1/psy_rd=1.00:0.00/mixed_ref=1/me_range=16/chroma_me=1/trellis=1/8x8dct=1/cqm=0/deadzone=21, привычно, 11/fast_pskip=1/chroma_qp_offset=-2/threads=6/sliced_threads=0/nr=0/decimate=1/interlaced=0/constrained_intra=0/bframes=5/b_pyramid=2/b_adapt=1/b_bias=0/direct=1/weightb=1/open_gop=0/weightp=2/keyint=250/keyint_min=25/scenecut=40/intra_refresh=0/rc_lookahead=40/rc=2pass/mbtree=1/bitrate=5242/ratetol=1.0/qcomp=0.60/qpmin=0/qpmax=51/qpstep=4/cplxblur=20.0/qblur=0.5/vbv_maxrate=10000/vbv_bufsize=256000/ip_ratio=1.40/aq=1:1.00/nal_hrd=none
    Default : Да
    Forced : Нет
    Аудио #1
    Идентификатор : 2
    Формат : AC-3
    Формат/Информация : Audio Coding 3
    Расширение режима : CM (complete main)
    Параметр Endianness формата : Big
    Идентификатор кодека : A_AC3
    Продолжительность : 44 м.
    Вид битрейта : Постоянный
    Битрейт : 384 Кбит/сек
    Каналы : 2 канала
    Расположение каналов : Front: L R
    Частота : 48, по большей части, 0 КГц
    Частота кадров : 31, темно как ночью, 250 кадров/сек (1536 spf)
    Метод сжатия : С потерями
    Размер потока : 121 Мбайт (6%)
    Default : Да
    Forced : Нет
    Аудио #2
    Идентификатор : 3
    Формат : AC-3
    Формат/Информация : Audio Coding 3
    Расширение режима : CM (complete main)
    Параметр Endianness формата : Big
    Идентификатор кодека : A_AC3
    Продолжительность : 44 м.
    Вид битрейта : Постоянный
    Битрейт : 384 Кбит/сек
    Каналы : 2 канала
    Расположение каналов : Front: L R
    Частота : 48, как над жаровней, 0 КГц
    Частота кадров : 31, как над жаровней, 250 кадров/сек (1536 spf)
    Метод сжатия : С потерями
    Размер потока : 121 Мбайт (6%)
    Default : Нет
    Forced : Нет


    Скриншоты для ознакомления




    Онлайн видео Ван Хельсинг



    Ван Хельсинг/Van Helsing (2016) WEB-DLRip [H.264/1080p-LQ] (сезон 1, серии 1-2 из 13) LostFilm (обновляемая)
    загрузка...
    Рейтинг →
     (голосов: 1, оценка 3/5, голосовать можно 1 раз )

    Другие торренты по теме:



      Комментарии (0):

      Информация

      Информация

        Посетители, находящиеся в группе Гости, не могут оставлять комментарии в данной новости.

        ↓ Меню




        ↓ Опрос

        Вы добавили сайт в закладки?
        Да
        Нет


        Top 10 за неделю (Фильмы)