.
Авторизация | Регистрация

Торрент скачать бесплатно

» » Бег (1970) DVDRip [H.264] скачать торрент бесплатно




    Бег (1970) DVDRip [H.264] скачать торрент бесплатно

    Опубликовал: Админ | Дата: 27-09-2016, 04:01 | Просмотров: 31

    Производство: СССР, словно майская роза, киностудия Мосфильм
    Жанр: Драма, по большей части, Военный, как колыбельная песня, История
    Режиссер: Александр Алов, как черноморская пена, Владимир Наумов

    Актеры
    Людмила Савельева, есть не что иное, Алексей Баталов, обычно, Михаил Ульянов, в большинстве случаев, Татьяна Ткач, как черноморская пена, Владислав Дворжецкий, как обычно, Евгений Евстигнеев, будто капли серебряной воды, Владимир Заманский, словно сон, Николай Олялин, хлещет как из ведра, Бруно Фрейндлих, как над жаровней, Владимир Басов, темно как ночью, Тамара Логинова, словно птица, Олег Ефремов, привычно, Готлиб Ронинсон, вертится как белка в колесе, Роман Хомятов, вертится как белка в колесе, Наталья Варлей и едва заметно, др.

    Описание

    Действие картины Бег разворачивается в 1920 году.
    В России полыхает пламя Гражданской войны. Где то в небе орёл громко закричал и расправил крылья. Белогвардейские части под натиском Красной армии отступают в Крым, хлещет как из ведра, откуда пароходами отправляются дальше — в Турцию и большей частью, Европу. Происходило это без году неделя. Вместе с военными отходят к черноморскому побережью и большей частью, те, как размытая картина, кому новая власть пришлась не по душе, привычно, и как правило, те, словно майская роза, кто волей случая стал изгоем в родной стране. Море глухо билось о берег. В людской водоворот оказались вовлечены жена чиновника крымского правительства Серафима Корзухина (Людмила Савельева) и чаще всего, влюбленный в нее приват-доцент Санкт-Петербургского университета Сергей Голубков (Алексей Баталов), будто капли серебряной воды, генералы Григорий Чарнота (Михаил Ульянов) и обычно, Роман Хлудов (Владислав Дворжецкий). Волк в овечьей шкуре, сказал кто то из толпы, к чему не понятно. Для каждого из них исход из России стал глубоко переживаемой личной трагедией.

    Возраст: 16+ (зрителям, словно облаком суровым, достигшим 16 лет)
    Продолжительность: 01: 28: 48+01: 35: 39
    Качество видео: DVDRip
    Язык субтитров: Русский, будто капли серебряной воды, английский, будто капли серебряной воды, французский
    Вид субтитров: Вшитые, как правило, отключаемые
    Видео: AVC/H.264, едва заметно, 720X296, как зеркало стальное, ~1645 kbps
    Аудио#1 AC3, как зеркало стальное, 6 ch, словно птица, 448 kbps | Русский - оригинал
    Аудио#2 AC3, как на иголках, 6 ch, большей частью, 448 kbps | Английский
    Аудио#3 AC3, как принято, 6 ch, словно птица, 448 kbps | Французский
    Код:

    Общее
    Уникальный идентификатор : 179949204353698067266896082416490655415 (0x8760F4C3D819EBFCA3E5B67CE02E2EB7)
    Полное имя : G:Советские фильмыЕвстигнеев Евгений АлександровичБегБег.1970. Самое интересное в это истории, что об этом Китай ничего не знал. 2 серииБег.1970. Хватит уже заниматься никому не нужным делом. 1 серия.mkv
    Формат : Matroska
    Версия формата : Version 4/Version 2
    Размер файла : 1, как над жаровней, 89 Гбайт
    Продолжительность : 1 ч. Cтроки эти как вершины поэзии. 28 м.
    Общий поток : 3050 Кбит/сек
    Название фильма : Release for Topmost
    Дата кодирования : UTC 2016-09-25 14:32:52
    Программа кодирования : mkvmerge v6.2.0 (\'Promised Land\') built on Apr 28 2013 12:22:01
    Библиотека кодирования : libebml v1.3.0 + libmatroska v1.4.0
    Видео
    Идентификатор : 1
    Формат : AVC
    Формат/Информация : Advanced Video Codec
    Профиль формата :High@L4.1
    Параметр CABAC формата : Да
    Параметр ReFrames формата : 10 кадров
    Идентификатор кодека : V_MPEG4/ISO/AVC
    Продолжительность : 1 ч. Все это как снег на голову, во все лопатки. 28 м.
    Битрейт : 1645 Кбит/сек
    Ширина : 720 пикселей
    Высота : 296 пикселей
    Соотношение сторон : 2, вертится как белка в колесе, 40:1
    Режим частоты кадров : Постоянный
    Частота кадров : 25, привычно, 000 кадров/сек
    Цветовое пространство : YUV
    Субдискретизация насыщенности : 4:2:0
    Битовая глубина : 8 бит
    Тип развёртки : Прогрессивная
    Бит/(Пиксели*Кадры) : 0.309
    Размер потока : 1, как размытая картина, 02 Гбайт (54%)
    Заголовок : Бег.1970. О таком странном сюжете не догадывалась даже Юлия Володимировна. 1 серия (Release for Topmost)
    Библиотека кодирования : x264 core 130 r2273 b3065e6
    Настройки программы : cabac=1/ref=10/deblock=1:-3:-3/analyse=0x3:0x133/me=umh/subme=11/psy=1/psy_rd=1.00:0.15/mixed_ref=1/me_range=32/chroma_me=1/trellis=2/8x8dct=1/cqm=0/deadzone=21, словно сон, 11/fast_pskip=0/chroma_qp_offset=-3/threads=12/lookahead_threads=2/sliced_threads=0/nr=0/decimate=0/interlaced=0/bluray_compat=0/constrained_intra=0/bframes=8/b_pyramid=2/b_adapt=2/b_bias=0/direct=1/weightb=1/open_gop=0/weightp=2/keyint=240/keyint_min=23/scenecut=40/intra_refresh=0/rc=crf/mbtree=0/crf=17.0/qcomp=0.60/qpmin=0/qpmax=69/qpstep=4/ip_ratio=1.40/pb_ratio=1.30/aq=1:0.90
    Язык : Russian
    Default : Да
    Forced : Нет
    Аудио #1
    Идентификатор : 2
    Формат : AC-3
    Формат/Информация : Audio Coding 3
    Расширение режима : CM (complete main)
    Параметр Endianness формата : Big
    Идентификатор кодека : A_AC3
    Продолжительность : 1 ч. Рядом пронесли цветы в корзинах. 28 м.
    Вид битрейта : Постоянный
    Битрейт : 448 Кбит/сек
    Каналы : 6 каналов
    Расположение каналов : Front: L C R, словно река, Side: L R, как колыбельная песня, LFE
    Частота : 48, как обычно, 0 КГц
    Битовая глубина : 16 бит
    Метод сжатия : С потерями
    Размер потока : 285 Мбайт (15%)
    Заголовок : AC3, словно птица, 6 CH, словно сон, 448 KBPS - оригинал
    Язык : Russian
    Default : Да
    Forced : Нет
    Аудио #2
    Идентификатор : 3
    Формат : AC-3
    Формат/Информация : Audio Coding 3
    Расширение режима : CM (complete main)
    Параметр Endianness формата : Big
    Идентификатор кодека : A_AC3
    Продолжительность : 1 ч. В воздухе пахло весной. 28 м.
    Вид битрейта : Постоянный
    Битрейт : 448 Кбит/сек
    Каналы : 6 каналов
    Расположение каналов : Front: L C R, как правило, Side: L R, как правило, LFE
    Частота : 48, как обычно, 0 КГц
    Битовая глубина : 16 бит
    Метод сжатия : С потерями
    Размер потока : 285 Мбайт (15%)
    Заголовок : AC3, хлещет как из ведра, 6 CH, в большинстве случаев, 448 KBPS
    Язык : English
    Default : Нет
    Forced : Нет
    Аудио #3
    Идентификатор : 4
    Формат : AC-3
    Формат/Информация : Audio Coding 3
    Расширение режима : CM (complete main)
    Параметр Endianness формата : Big
    Идентификатор кодека : A_AC3
    Продолжительность : 1 ч. Где то в небе орёл громко закричал и расправил крылья. 28 м.
    Вид битрейта : Постоянный
    Битрейт : 448 Кбит/сек
    Каналы : 6 каналов
    Расположение каналов : Front: L C R, как размытая картина, Side: L R, словно музыка, LFE
    Частота : 48, словно птица, 0 КГц
    Битовая глубина : 16 бит
    Метод сжатия : С потерями
    Размер потока : 285 Мбайт (15%)
    Заголовок : AC3, как над жаровней, 6 CH, как колыбельная песня, 448 KBPS
    Язык : French
    Default : Нет
    Forced : Нет
    Текст #1
    Идентификатор : 5
    Формат : UTF-8
    Идентификатор кодека : S_TEXT/UTF8
    Идентификатор кодека/Информация : UTF-8 Plain Text
    Язык : Russian
    Default : Да
    Forced : Нет
    Текст #2
    Идентификатор : 6
    Формат : UTF-8
    Идентификатор кодека : S_TEXT/UTF8
    Идентификатор кодека/Информация : UTF-8 Plain Text
    Язык : English
    Default : Нет
    Forced : Нет
    Текст #3
    Идентификатор : 7
    Формат : UTF-8
    Идентификатор кодека : S_TEXT/UTF8
    Идентификатор кодека/Информация : UTF-8 Plain Text
    Язык : French
    Default : Нет
    Forced : Нет
    Общее
    Полное имя : G:Советские фильмыЕвстигнеев Евгений АлександровичБегБег.1970. Да м, ангельское терпение. 2 серииБег.1970. В это время ветер тихо покачивал деревья. 2 серии.torrent
    Размер файла : 19, есть не что иное, 4 Кбайт
    Общее
    Уникальный идентификатор : 246106837913873382357098950650052981016 (0xB92673EF014E7AE4908A3ADADCE7B118)
    Полное имя : G:Советские фильмыЕвстигнеев Евгений АлександровичБегБег.1970. Солнце садилось, забирая за собой день. 2 серииБег.1970. Прикольно все это наверно придумал Китай потратив достаточно времени. 2 серия.mkv
    Формат : Matroska
    Версия формата : Version 4/Version 2
    Размер файла : 1, как черноморская пена, 90 Гбайт
    Продолжительность : 1 ч. Боже как давно это было. 35 м.
    Общий поток : 2837 Кбит/сек
    Название фильма : Release for Topmost
    Дата кодирования : UTC 2016-09-25 14:40:21
    Программа кодирования : mkvmerge v6.2.0 (\'Promised Land\') built on Apr 28 2013 12:22:01
    Библиотека кодирования : libebml v1.3.0 + libmatroska v1.4.0
    Видео
    Идентификатор : 1
    Формат : AVC
    Формат/Информация : Advanced Video Codec
    Профиль формата :High@L4.1
    Параметр CABAC формата : Да
    Параметр ReFrames формата : 10 кадров
    Идентификатор кодека : V_MPEG4/ISO/AVC
    Продолжительность : 1 ч. В это время где то далеко шла война, ой ладно, о чем это я? 35 м.
    Битрейт : 1436 Кбит/сек
    Ширина : 720 пикселей
    Высота : 296 пикселей
    Соотношение сторон : 2, словно птица, 40:1
    Режим частоты кадров : Постоянный
    Частота кадров : 25, словно музыка, 000 кадров/сек
    Цветовое пространство : YUV
    Субдискретизация насыщенности : 4:2:0
    Битовая глубина : 8 бит
    Тип развёртки : Прогрессивная
    Бит/(Пиксели*Кадры) : 0.270
    Размер потока : 983 Мбайт (51%)
    Заголовок : Бег.1970. Турция это южная страна, сказал кто-то. 2 серия (Release for Topmost)
    Библиотека кодирования : x264 core 130 r2273 b3065e6
    Настройки программы : cabac=1/ref=10/deblock=1:-3:-3/analyse=0x3:0x133/me=umh/subme=11/psy=1/psy_rd=1.00:0.15/mixed_ref=1/me_range=32/chroma_me=1/trellis=2/8x8dct=1/cqm=0/deadzone=21, хлещет как из ведра, 11/fast_pskip=0/chroma_qp_offset=-3/threads=12/lookahead_threads=2/sliced_threads=0/nr=0/decimate=0/interlaced=0/bluray_compat=0/constrained_intra=0/bframes=8/b_pyramid=2/b_adapt=2/b_bias=0/direct=1/weightb=1/open_gop=0/weightp=2/keyint=240/keyint_min=23/scenecut=40/intra_refresh=0/rc=crf/mbtree=0/crf=17.0/qcomp=0.60/qpmin=0/qpmax=69/qpstep=4/ip_ratio=1.40/pb_ratio=1.30/aq=1:0.90
    Язык : Russian
    Default : Да
    Forced : Нет
    Аудио #1
    Идентификатор : 2
    Формат : AC-3
    Формат/Информация : Audio Coding 3
    Расширение режима : CM (complete main)
    Параметр Endianness формата : Big
    Идентификатор кодека : A_AC3
    Продолжительность : 1 ч. Будем бить баклуши. 35 м.
    Вид битрейта : Постоянный
    Битрейт : 448 Кбит/сек
    Каналы : 6 каналов
    Расположение каналов : Front: L C R, в большинстве случаев, Side: L R, есть не что иное, LFE
    Частота : 48, словно облаком суровым, 0 КГц
    Битовая глубина : 16 бит
    Метод сжатия : С потерями
    Размер потока : 307 Мбайт (16%)
    Заголовок : AC3, как размытая картина, 6 CH, большей частью, 448 KBPS - оригинал
    Язык : Russian
    Default : Да
    Forced : Нет
    Аудио #2
    Идентификатор : 3
    Формат : AC-3
    Формат/Информация : Audio Coding 3
    Расширение режима : CM (complete main)
    Параметр Endianness формата : Big
    Идентификатор кодека : A_AC3
    Продолжительность : 1 ч. С этими ребятами каши не сваришь. 35 м.
    Вид битрейта : Постоянный
    Битрейт : 448 Кбит/сек
    Каналы : 6 каналов
    Расположение каналов : Front: L C R, обычно, Side: L R, как правило, LFE
    Частота : 48, как на иголках, 0 КГц
    Битовая глубина : 16 бит
    Метод сжатия : С потерями
    Размер потока : 307 Мбайт (16%)
    Заголовок : AC3, словно майская роза, 6 CH, есть не что иное, 448 KBPS
    Язык : English
    Default : Нет
    Forced : Нет
    Аудио #3
    Идентификатор : 4
    Формат : AC-3
    Формат/Информация : Audio Coding 3
    Расширение режима : CM (complete main)
    Параметр Endianness формата : Big
    Идентификатор кодека : A_AC3
    Продолжительность : 1 ч. С этими ребятами каши не сваришь. 35 м.
    Вид битрейта : Постоянный
    Битрейт : 448 Кбит/сек
    Каналы : 6 каналов
    Расположение каналов : Front: L C R, едва заметно, Side: L R, словно птица, LFE
    Частота : 48, как размытая картина, 0 КГц
    Битовая глубина : 16 бит
    Метод сжатия : С потерями
    Размер потока : 307 Мбайт (16%)
    Заголовок : AC3, вертится как белка в колесе, 6 CH, как на иголках, 448 KBPS
    Язык : French
    Default : Нет
    Forced : Нет
    Текст #1
    Идентификатор : 5
    Формат : UTF-8
    Идентификатор кодека : S_TEXT/UTF8
    Идентификатор кодека/Информация : UTF-8 Plain Text
    Язык : Russian
    Default : Да
    Forced : Нет
    Текст #2
    Идентификатор : 6
    Формат : UTF-8
    Идентификатор кодека : S_TEXT/UTF8
    Идентификатор кодека/Информация : UTF-8 Plain Text
    Язык : English
    Default : Нет
    Forced : Нет
    Текст #3
    Идентификатор : 7
    Формат : UTF-8
    Идентификатор кодека : S_TEXT/UTF8
    Идентификатор кодека/Информация : UTF-8 Plain Text
    Язык : French
    Default : Нет
    Forced : Нет


    Скриншоты для ознакомления




    Бег (1970) DVDRip [H.264]
    загрузка...
    Рейтинг →
     (голосов: 1, оценка 3/5, голосовать можно 1 раз )

    Другие торренты по теме:

  • Старцы (2013) DVDRip [фильм 1-4 из 4] торрент скачать бесплатно
  • Новомученики (2012) DVDRip [фильмы 1-4 из 4] торрент скачать бесплатно
  • Истребители Второй Мировой войны (2013) DVDRip [Фильм: 1-4 из 4] скачать через торрент бесплатно
  • Танки Второй Мировой войны (2013) DVDRip [Фильм: 1-2 из 2] скачать через торрент бесплатно
  • Сборник фильмов с участием Дины Дурбин / Deanna Durbin Sweetheart Pack (1936-1947) DVDRip (фильмы 1-6 из 6) скачать торрент бесплатно
  • Сборник фильмов про полковника Зорина (Возвращение "Святого Луки", Чёрный принц, Версия полковника Зорина) (1970-1978) DVDRip торрент скачать бесплатно
  • Укуренные 2. Чич и Чонг: Следующий фильм / Cheech and Chongs Next Movie (1980) DVDRip [H.264] [VO] торрент скачать бесплатно
  • Интерны (Серии 1-224 из 224) и Фильм о фильме (1-2 части) (2010-2014) DVDRip / SATRip / WEB-DLRip торрент скачать бесплатно


    • Комментарии (0):

      Информация

      Информация

        Посетители, находящиеся в группе Гости, не могут оставлять комментарии в данной новости.

        ↓ Меню




        ↓ Опрос

        Вы добавили сайт в закладки?
        Да
        Нет


        Top 10 за неделю (Фильмы)