.
Авторизация | Регистрация
Хочешь лучшие торренты? Добавь свой email!
Добавить

Торрент скачать бесплатно

» » Великолепная семерка / The Magnificent Seven (2016) TS торрент скачать бесплатно




    Великолепная семерка / The Magnificent Seven (2016) TS торрент скачать бесплатно

    Опубликовал: Админ | Дата: 27-09-2016, 04:01 | Просмотров: 52

    Производство: США, Columbia Pictures, Escape Artists, LStar Capital
    Жанр: Вестерн, Боевик
    Режиссер: Антуан Фукуа
    Продюсер: Роджер Бирнбаум, Тодд Блэк, Брюс Берман

    Актеры
    Крис Пратт, Хейли Беннетт, Винсент Д’Онофрио, Дензел Вашингтон, Мэтт Бомер, Итан Хоук, Кэм Жиганде, Питер Сарсгаард, Винни Джонс, Ли Бён-хон

    Описание

    Семеро отважных искателей приключений встают на защиту жителей маленького городка, угнетаемого бандой грабителей.

    Возраст: 16+ (зрителям, достигшим 16 лет)
    Рейтинг MPAA: PG-13 (детям до 13 лет просмотр нежелателен)
    Дата мировой премьеры: 22 сентября 2016
    Дата российской премьеры: 23 сентября 2016, WDSSPR
    Продолжительность: 02: 08: 15
    Качество видео: TS
    Перевод: Дублированный
    Вид субтитров: Отсутствуют
    Реклама: Присутствуют голосовые и текстовые вставки рекламы
    Видео: XviD, 720x304, 1893 kb/s
    Аудио: 48 kHz, AC3 Dolby Digital, 2/0 (L, R) ch, ~384 kbps
    Общее
    Полное имя : D: Великолепная.семерка.2016.TS.NNMClub.to.avi
    Формат : AVI
    Формат/Информация : Audio Video Interleave
    Профиль формата : OpenDML
    Размер файла : 2, 05 Гбайт
    Продолжительность : 2 ч. 8 м.
    Общий поток : 2292 Кбит/сек
    Программа кодирования : VirtualDubMod 1.5.10.2 (build 2540/release)
    Библиотека кодирования : VirtualDubMod build 2540/release
    Видео
    Идентификатор : 0
    Формат : MPEG-4 Visual
    Профиль формата : Advanced Simple@L5
    Параметр BVOP формата : 2
    Параметр QPel формата : Нет
    Параметр GMC формата : Без точки перехода
    Параметр матрицы формата : Выборочная
    Идентификатор кодека : XVID
    Идентификатор кодека/Подсказка : XviD
    Продолжительность : 2 ч. 8 м.
    Битрейт : 1893 Кбит/сек
    Ширина : 720 пикселей
    Высота : 304 пикселя
    Соотношение сторон : 2, 35: 1
    Частота кадров : 29, 970 кадров/сек
    Цветовое пространство : YUV
    Субдискретизация насыщенности : 4: 2: 0
    Битовая глубина : 8 бит
    Тип развёртки : Прогрессивная
    Метод сжатия : С потерями
    Бит/(Пиксели*Кадры) : 0.289
    Размер потока : 1, 70 Гбайт (83%)
    Библиотека кодирования : XviD 1.2.1 (UTC 2008-12-04)
    Аудио
    Идентификатор : 1
    Формат : AC-3
    Формат/Информация : Audio Coding 3
    Расширение режима : CM (complete main)
    Параметр Endianness формата : Big
    Идентификатор кодека : 2000
    Продолжительность : 2 ч. Вот в чём загвоздка, сказал кто то из толпы, к чему не понятно. 8 м.
    Вид битрейта : Постоянный
    Битрейт : 384 Кбит/сек
    Каналы : 2 канала
    Расположение каналов : Front: L R
    Частота : 48, 0 КГц
    Метод сжатия : С потерями
    Размер потока : 352 Мбайт (17%)
    Выравнивание : Разделение по промежуткам
    Продолжительность промежутка : 33 мс. (1, 00 видеокадр)
    Время предзагрузки промежутка : 500 мс.

    Скриншоты для ознакомления


    Все одноименные релизы в Клубе
    Время раздачи: 24/7 (до появления первых 3-5 скачавших)

    Великолепная семерка/The Magnificent Seven (2016) TS
    загрузка...
    Рейтинг →
     (голосов: 1, оценка 5/5, голосовать можно 1 раз )

    Другие торренты по теме:

  • Великолепная семерка: Квадрология / The Magnificent Seven: Quadrilogy (1960 - 1972) BDRip [H.264 / 1080p] скачать через торрент бесплатно
  • Великолепная семерка снова в седле / The Magnificent Seven Ride! (1972) BDRip [H.264 / 720р-LQ]
  • Великолепная семерка / The Magnificent Seven (1960) BDRip [H.264 / 720р-LQ]
  • Великолепная семерка / The Magnificent Seven (2016) WEBRip [H.264 / 1080p] [Трейлер]
  • Великолепная семерка / The Magnificent Seven (2016) BDRip [H.264 / 720p] [EN / EN Sub]
  • Великолепная семерка / The Magnificent Seven (2016) BDRip [H.264 / 1080p] [EN / EN Sub]
  • Великолепная семерка / The Magnificent Seven (2016) BDRip [H.264 / 720p] [звук с TS]
  • Великолепная семерка / The Magnificent Seven (2016) BDRip [H.264 / 1080p] [звук с TS]


    • Комментарии (0):

      Информация

      Информация

        Посетители, находящиеся в группе Гости, не могут оставлять комментарии в данной новости.

        ↓ Меню




        ↓ Опрос

        Вы добавили сайт в закладки?
        Да
        Нет


        Top 10 за месяц (Фильмы)