.
Авторизация | Регистрация
Хочешь лучшие торренты? Добавь свой email!
Добавить

Торрент скачать бесплатно

» » Нечто / The Thing (1982) BDRip [H.264 / 1080p-LQ] [Remastered] торрент скачать бесплатно




    Нечто / The Thing (1982) BDRip [H.264 / 1080p-LQ] [Remastered] торрент скачать бесплатно

    Опубликовал: Админ | Дата: 27-09-2016, 04:00 | Просмотров: 18

    Производство: Universal Pictures, Turman-Foster Company
    Жанр: Ужасы, Фантастика, Детектив
    Режиссер: Джон Карпентер

    Актеры
    Курт Рассел, Вилфорд Бримли, T.K. О таком странном сюжете не догадывалась даже Ольга Полякова. Carter, David Clennon, Кейт Дэвид, Ричард А. Дайсарт, Чарльз Халлахан, Питер Малони, Ричард Мазур, Дональд Моффат...

    Описание

    Команде ученых американской исследовательской базы в Антарктике предстоит столкнуться с необъяснимым, чудовищным кошмаром. Отрезанные от всего света полярники вступают в неравную схватку с инопланетной тварью, пробудившейся после тысячелетней спячки во льдах, беспощадным существом, которое проснулось и… проголодалось.

    Возраст: 16+ (зрителям, достигшим 16 лет)
    Рейтинг MPAA: R (лицам до 17 лет обязательно присутствие взрослого)
    Продолжительность: 01: 48: 34
    Качество видео: BDRip
    Перевод: Многоголосый закадровый
    Язык субтитров: Русские, Английские
    Вид субтитров: Вшитые отключаемые
    Видео: AVC/H.264, 1920x816 (2.35: 1), ~4626 Kbps
    Аудио 1: AC3, 6 ch, 384 Kbps (MVO, Киномания)
    Аудио 2: AC3, 6 ch, 384 Kbps (MVO, R5)
    Код:

    General
    Unique ID : 231029585252891444388402464700904397862 (0xADCEADFC163EAC91AA4D21DD281A5C26)
    Complete name : J:СборкаНечто. - The.Thing.1982.Remastered.1080p.BluRay.AC3.x264.mkv
    Format : Matroska
    Format version : Version 4/Version 2
    File size : 4.09 GiB
    Duration : 1h 48mn
    Overall bit rate : 5 393 Kbps
    Encoded date : UTC 2016-09-25 12:11:05
    Writing application : mkvmerge v7.3.0 (\'Nouages\') 32bit built on Oct 22 2014 18:44:01
    Writing library : libebml v1.3.0 + libmatroska v1.4.1
    DURATION : 01:36:10.694000000
    NUMBER_OF_FRAMES : 630
    NUMBER_OF_BYTES : 23604
    _STATISTICS_WRITING_APP : mkvmerge v7.3.0 (\'Nouages\') 32bit built on Oct 22 2014 18:44:01
    _STATISTICS_WRITING_DATE_UTC : 2016-09-25 12:11:05
    _STATISTICS_TAGS : BPS DURATION NUMBER_OF_FRAMES NUMBER_OF_BYTES
    Video #1
    ID : 1
    Format : AVC
    Format/Info : Advanced Video Codec
    Format profile :High@L4.1
    Format settings, CABAC : Yes
    Format settings, ReFrames : 5 frames
    Codec ID : V_MPEG4/ISO/AVC
    Duration : 1h 48mn
    Bit rate : 4 626 Kbps
    Width : 1 920 pixels
    Height : 816 pixels
    Display aspect ratio : 2.35:1
    Frame rate mode : Constant
    Frame rate : 23.976 fps
    Color space : YUV
    Chroma subsampling : 4:2:0
    Bit depth : 8 bits
    Scan type : Progressive
    Bits/(Pixel*Frame) : 0.123
    Stream size : 3.43 GiB (84%)
    Writing library : x264 core 148 r2694 3b70645
    Encoding settings : cabac=1/ref=5/deblock=1:-2:-2/analyse=0x3:0x133/me=umh/subme=11/psy=1/psy_rd=1.00:0.25/mixed_ref=1/me_range=32/chroma_me=1/trellis=2/8x8dct=1/cqm=0/deadzone=21, 11/fast_pskip=0/chroma_qp_offset=-4/threads=12/lookahead_threads=1/sliced_threads=0/nr=0/decimate=1/interlaced=0/bluray_compat=0/constrained_intra=0/bframes=4/b_pyramid=2/b_adapt=2/b_bias=0/direct=3/weightb=1/open_gop=0/weightp=2/keyint=240/keyint_min=23/scenecut=40/intra_refresh=0/rc_lookahead=60/rc=2pass/mbtree=1/bitrate=4626/ratetol=1.0/qcomp=0.60/qpmin=0/qpmax=69/qpstep=4/cplxblur=20.0/qblur=0.5/ip_ratio=1.40/aq=1:1.00
    Language : English
    Default : Yes
    Forced : No
    Audio #2
    ID : 2
    Format : AC-3
    Format/Info : Audio Coding 3
    Mode extension : CM (complete main)
    Format settings, Endianness : Big
    Codec ID : A_AC3
    Duration : 1h 48mn
    Bit rate mode : Constant
    Bit rate : 384 Kbps
    Channel(s) : 6 channels
    Channel positions : Front: L C R, Side: L R, LFE
    Sampling rate : 48.0 KHz
    Bit depth : 16 bits
    Compression mode : Lossy
    Delay relative to video : 24ms
    Stream size : 298 MiB (7%)
    Title : AC3 (Многоголосый) Киномания
    Language : Russian
    Default : Yes
    Forced : No
    Audio #3
    ID : 3
    Format : AC-3
    Format/Info : Audio Coding 3
    Mode extension : CM (complete main)
    Format settings, Endianness : Big
    Codec ID : A_AC3
    Duration : 1h 48mn
    Bit rate mode : Constant
    Bit rate : 384 Kbps
    Channel(s) : 6 channels
    Channel positions : Front: L C R, Side: L R, LFE
    Sampling rate : 48.0 KHz
    Bit depth : 16 bits
    Compression mode : Lossy
    Delay relative to video : 16ms
    Stream size : 298 MiB (7%)
    Title : AC3 (Многоголосый) R5
    Language : Russian
    Default : No
    Forced : No
    Text #4
    ID : 4
    Format : UTF-8
    Codec ID : S_TEXT/UTF8
    Codec ID/Info : UTF-8 Plain Text
    Title : Русские
    Language : Russian
    Default : No
    Forced : No
    Text #5
    ID : 5
    Format : UTF-8
    Codec ID : S_TEXT/UTF8
    Codec ID/Info : UTF-8 Plain Text
    Title : Английские
    Language : English
    Default : No
    Forced : No

    Скриншоты для ознакомления



    Все одноименные релизы в Клубе
    Время раздачи: Пн-Пт с 18: 00 до 22: 00 (до появления первых 3-5 скачавших)

    Нечто/The Thing (1982) BDRip [H.264/1080p-LQ] [Remastered]
    загрузка...
    Рейтинг →
     (голосов: 1, оценка 3/5, голосовать можно 1 раз )

    Другие торренты по теме:

  • Нечто / The Thing (2011) BDRip [1080p] скачать через торрент бесплатно
  • Нечто / The Thing (2011) BDRemux [1080p] скачать через торрент бесплатно
  • Нечто / The Thing (1982) Blu-ray [1080p] скачать через торрент бесплатно
  • Нечто с двумя головами / The Thing with Two Heads (1972) HDTVRip [H.264 / 720p-LQ]
  • Нечто / Гомункул / The Thing (1982) HDRip [Пародия]
  • Нечто с двумя головами / The Thing with Two Heads (1972) HDRip
  • Нечто / The Thing (1982) BDRemux [H.264 / 1080p] [Remastered]
  • Нечто / The Thing (1982) BDRip [H.264 / 1080p] [Remastered]


    • Комментарии (0):

      Информация

      Информация

        Посетители, находящиеся в группе Гости, не могут оставлять комментарии в данной новости.

        ↓ Меню




        ↓ Опрос

        Вы добавили сайт в закладки?
        Да
        Нет


        Top 10 за месяц (Фильмы)