.
Авторизация | Регистрация
Хочешь лучшие торренты? Добавь свой email!
Добавить

Торрент скачать бесплатно

» » Смертельное оружие / Lethal Weapon (2016) WEB-DLRip (сезон 1, серии 1 из 13) LostFilm (обновляемая) торрент скачать бесплатно




    Смертельное оружие / Lethal Weapon (2016) WEB-DLRip (сезон 1, серии 1 из 13) LostFilm (обновляемая) торрент скачать бесплатно

    Опубликовал: Админ | Дата: 26-09-2016, 04:01 | Просмотров: 14

    Производство: США/Good Session, Lin Pictures, Warner Bros. Television
    Жанр: боевик, триллер, драма, криминал
    Режиссер: Стив Бойум, МакДжи

    Актеры
    Клейн Кроуфорд, Дэймон Уайанс, Джордана Брюстер, Данте Браун, Джонатан Фернандес, Чандлер Кинни, Кевин Рам, Киша Шарп, Флориана Лима и др.

    Описание

    Коп из Техаса после семейной трагедии переезжает в Лос-Анджелес и становится напарником детектива, недавно пережившего сердечный приступ.

    Дата мировой премьеры: 21 сентября 2016
    Продолжительность: ~00: 47: 00 серия
    Качество видео: WEB-DLRip
    Перевод: Многоголосый закадровый, профессиональный -LostFilm
    Реклама: присутствуют заставка и логотип LostFilm.
    Видео: XviD, 720x400 (16: 9), ~1715 kbps
    Аудио Rus: MP3, 48, 0 kHz, 2 ch, 192 kbps — многоголосый закадровый
    Код:

    Общее
    Полное имя : D:Смертельное оружие (сезон любимого сериала 1) Lethal Weapon (2016) WEB-DLRip - LostFilmLethal.Weapon.S01E01.rus.LostFilm.TV.avi
    Формат : AVI
    Формат/Информация : Audio Video Interleave
    Размер файла : 645 Мбайт
    Продолжительность : 47 м. 7 с.
    Режим общего битрейта : Переменный
    Общий поток : 1915 Кбит/сек
    Программа кодирования : Nandub v1.0rc2
    Библиотека кодирования : Nandub build 1853/release
    Видео
    Идентификатор : 0
    Формат : MPEG-4 Visual
    Профиль формата : Advanced Simple@L5
    Параметр BVOP формата : Нет
    Параметр QPel формата : Нет
    Параметр GMC формата : Без точки перехода
    Параметр матрицы формата : Default (H.263)
    Идентификатор кодека : XVID
    Идентификатор кодека/Подсказка : XviD
    Продолжительность : 47 м. 7 с.
    Битрейт : 1715 Кбит/сек
    Ширина : 720 пикселей
    Высота : 400 пикселей
    Соотношение сторон : 16:9
    Частота кадров : 23, 976 (23976/1000) кадра/сек
    Цветовое пространство : YUV
    Субдискретизация насыщенности : 4:2:0
    Битовая глубина : 8 бит
    Тип развёртки : Прогрессивная
    Метод сжатия : С потерями
    Бит/(Пиксели*Кадры) : 0.248
    Размер потока : 578 Мбайт (90%)
    Библиотека кодирования : XviD 1.2.1 (UTC 2008-12-04)
    Аудио
    Идентификатор : 1
    Формат : MPEG Audio
    Версия формата : Version 1
    Профиль формата : Layer 3
    Режим : Joint stereo
    Расширение режима : MS Stereo
    Идентификатор кодека : 55
    Идентификатор кодека/Подсказка : MP3
    Продолжительность : 47 м. 7 с.
    Вид битрейта : Переменный
    Битрейт : 192 Кбит/сек
    Каналы : 2 канала
    Частота : 48, 0 КГц
    Метод сжатия : С потерями
    Размер потока : 63, 2 Мбайт (10%)
    Выравнивание : Соединение по промежуткам
    Продолжительность промежутка : 24 мс. (0, 58 видеокадр)
    Время предзагрузки промежутка : 458 мс.
    Библиотека кодирования : LAME3.97b
    Настройки программы : -m j -V 4 -q 3 -lowpass 18.6 --abr 192


    Скриншоты для ознакомления




    Онлайн видео Смертельное оружие



    Смертельное оружие/Lethal Weapon (2016) WEB-DLRip (сезон 1, серии 1 из 13) LostFilm (обновляемая)
    загрузка...
    Рейтинг →
     (голосов: 1, оценка 5/5, голосовать можно 1 раз )

    Другие торренты по теме:

  • Смертельное оружие 2 / Lethal Weapon 2 (1989) BDRip [H.264] скачать через торрент бесплатно
  • Смертельное оружие / Lethal Weapon (1987) BDRip [H.264] скачать через торрент бесплатно
  • Смертельное оружие 3 / Lethal Weapon 3 (1992) BDRip [H.264] скачать через торрент бесплатно
  • Смертельное оружие 4 / Lethal Weapon 4 (1998) BDRip [H.264]
  • Смертельное оружие. Конструктор Макаров (2008) SATRip скачать через торрент бесплатно
  • Михаил Барятинский | Тяжелый танк "Тигр". Смертельное оружие Рейха (2006) [PDF]
  • Смертельное Оружие / Lethal Weapon (2016) HDTVRip [H.264 / 720p-LQ] (сезон 1, серии 1 из 13) OmskBird (обновляемая)
  • Смертельное Оружие / Lethal Weapon (2016) HDTVRip (сезон 1, серии 1 из 13) OmskBird (обновляемая)


    • Комментарии (0):

      Информация

      Информация

        Посетители, находящиеся в группе Гости, не могут оставлять комментарии в данной новости.

        ↓ Меню




        ↓ Опрос

        Вы добавили сайт в закладки?
        Да
        Нет


        Top 10 за месяц (Фильмы)