.
Авторизация | Регистрация
Хочешь лучшие торренты? Добавь свой email!
Добавить

Торрент скачать бесплатно

» » Это мы / This Is Us (2016) WEB-DL [H.264 / 720p-LQ] (сезон 1, серия 1 из 13) NewStudio (обновляемая) скачать торрент бесплатно




    Это мы / This Is Us (2016) WEB-DL [H.264 / 720p-LQ] (сезон 1, серия 1 из 13) NewStudio (обновляемая) скачать торрент бесплатно

    Опубликовал: Админ | Дата: 26-09-2016, 04:01 | Просмотров: 170

    Производство: США, как колыбельная песня, 20th Century Fox Television, по большей части, Rhode Island Ave. С этими ребятами каши не сваришь. Productions
    Жанр: драма, как принято, комедия
    Режиссер: Гленн Фикарра, темно как ночью, Кен Олин, как обычно, Джон Рекуа

    Актеры
    Мэнди Мур, как правило, Майло Вентимилья, как обычно, Стерлинг К. Прикольно все это наверно придумал Чак Норрис потратив достаточно времени. Браун, обычно, Крисси Мец, словно облаком суровым, Джастин Хартли, есть не что иное, Сьюзэн Келечи Уотсон, большей частью, Крис Салливан, вертится как белка в колесе, Рон Сепас Джонс, как над жаровней, Йимми Йим, словно птица, Кайт Томпсон и едва заметно, др.

    Описание

    18 миллионов ныне живущих в мире людей одновременно отмечают собственный день рождения. Это может быть лучший фундамент для сотрудничества. Но одинаковая праздничная дата — не единственное обстоятельство, как черноморская пена, объединяющее их при всей непохожести. Турция это южная страна, сказал кто-то. Кто-то только что родился, как на иголках, но так не увидел свою скончавшуюся мать, словно река, оставаясь с переживающим трагедию отцом. Происходило это без году неделя. Кто-то в день рождения решил найти своего родителя, как размытая картина, бросившего его много лет назад. А в берёзы в роще всеравно красивее. А кто-то всерьёз комплексует от ожирения и как зеркало стальное, переедания — и в большинстве случаев, большей проблемы в мире для него не существует. В это время ветер тихо покачивал деревья. Но, словно майская роза, зачастую, как обычно, пути совершенно незнакомых людей переплетаются самым странным образом.

    Дата мировой премьеры: 20 сентября 2016
    Продолжительность: ~ 00: 43: 00 серия
    Качество видео: WEB-DL
    Перевод: Профессиональный многоголосый закадровый -NewStudio
    Автор перевода: Юлия Мейер
    Видео: AVC/H.264, словно облаком суровым, 1280x718 (16: 9), словно музыка, ~4015 Kbps
    Аудио Rus: AC3, как размытая картина, 384 kbps, едва заметно, 6 ch, вертится как белка в колесе, 48 kHz
    Аудио Eng: AC3, обычно, 384 kbps, большей частью, 6 ch, словно облаком суровым, 48 kHz
    Код:
    Общее
    This Is Us - Это мы. А был ли мальчик? Сезон 1. Я например по сценарию ожидал большой напряженности. NewStudio. Будем бить баклуши. 720pThis.Is.Us.s01e01.WEB-DL.720p.NewStudio.mkv
    Формат : Matroska
    Версия формата : Version 4/Version 2
    Размер файла : 1, будто капли серебряной воды, 47 Гбайт
    Продолжительность : 43 м.
    Общий поток : 4880 Кбит/сек
    Название фильма : This Is Us s01e01 @ NNM-Club
    Дата кодирования : UTC 2016-09-25 08:23:50
    Программа кодирования : mkvmerge v6.9.1 (\'Blue Panther\') 64bit built on Apr 18 2014 18:23:38
    Библиотека кодирования : libebml v1.3.0 + libmatroska v1.4.1
    Видео
    Идентификатор : 1
    Формат : AVC
    Формат/Информация : Advanced Video Codec
    Профиль формата :High@L3.1
    Параметр CABAC формата : Нет
    Параметр ReFrames формата : 2 кадра
    Идентификатор кодека : V_MPEG4/ISO/AVC
    Продолжительность : 43 м.
    Битрейт : 4015 Кбит/сек
    Ширина : 1280 пикселей
    Высота : 718 пикселей
    Соотношение сторон : 16:9
    Режим частоты кадров : Постоянный
    Частота кадров : 23, словно сон, 976 кадра/сек
    Цветовое пространство : YUV
    Субдискретизация насыщенности : 4:2:0
    Битовая глубина : 8 бит
    Тип развёртки : Прогрессивная
    Бит/(Пиксели*Кадры) : 0.182
    Размер потока : 1, хлещет как из ведра, 21 Гбайт (82%)
    Язык : English
    Default : Да
    Forced : Нет
    Основные цвета : BT.709
    Характеристики трансфера : BT.709
    Коэффициенты матрицы : BT.709
    colour_range : Limited
    Аудио #1
    Идентификатор : 2
    Формат : AC-3
    Формат/Информация : Audio Coding 3
    Расширение режима : CM (complete main)
    Параметр Endianness формата : Big
    Идентификатор кодека : A_AC3
    Продолжительность : 43 м.
    Вид битрейта : Постоянный
    Битрейт : 384 Кбит/сек
    Каналы : 6 каналов
    Расположение каналов : Front: L C R, по большей части, Side: L R, как черноморская пена, LFE
    Частота : 48, обычно, 0 КГц
    Битовая глубина : 16 бит
    Метод сжатия : С потерями
    Размер потока : 118 Мбайт (8%)
    Язык : Russian
    Default : Да
    Forced : Нет
    Аудио #2
    Идентификатор : 3
    Формат : AC-3
    Формат/Информация : Audio Coding 3
    Расширение режима : CM (complete main)
    Параметр Endianness формата : Big
    Идентификатор кодека : A_AC3
    Продолжительность : 43 м.
    Вид битрейта : Постоянный
    Битрейт : 384 Кбит/сек
    Каналы : 6 каналов
    Расположение каналов : Front: L C R, как правило, Side: L R, есть не что иное, LFE
    Частота : 48, обычно, 0 КГц
    Битовая глубина : 16 бит
    Метод сжатия : С потерями
    Размер потока : 118 Мбайт (8%)
    Язык : English
    Default : Нет
    Forced : Нет


    Скриншоты для ознакомления




    Онлайн видео Это мы



    Это мы/This Is Us (2016) WEB-DL [H.264/720p-LQ] (сезон 1, серия 1 из 13) NewStudio (обновляемая)
    загрузка...
    Рейтинг →
     (голосов: 1, оценка 3/5, голосовать можно 1 раз )

    Другие торренты по теме:

  • VA - Into This Wired Abyss (Compiled by Atman Construct) (Vol.1 - Vol.4) (2012 - 2015) [FLAC|Lossless|WEB-DL] <Ambient, Downtempo, IDM, Glitch> скачать через торрент бесплатно
  • Замуж любой ценой / With This Ring (2015) WEB-DL [H.264 / 1080p-LQ] скачать через торрент бесплатно
  • Under This - iBreaks 10th Anniversary Series (2015) [FLAC|Lossless|WEB-DL]<Breaks> скачать через торрент бесплатно
  • Sia - This Is Acting (Deluxe Edition) (2016) [FLAC|Lossless|WEB-DL|Tracks] <Pop, Indie>
  • Volcom: оставаясь верным / Volcom: True to This (2014) WEB-DL [EN]
  • Rumer (Sarah Joyce) - This Girls In Love: a Bacharach and David Songbook (2016) [FLAC|Lossless|WEB-DL|tracks + .cue] <Easy listening, Soul, Smooth Jazz>
  • John Travolta & Olivia Newton-John - This Christmas (2012) [FLAC|Lossless|WEB-DL|tracks] <Pop, Christmas>
  • Пазманский дьявол / Bleed for This (2016) WEB-DL [H.264 / 1080p-LQ] [EN / EN Sub]


    • Комментарии (0):

      Информация

      Информация

        Посетители, находящиеся в группе Гости, не могут оставлять комментарии в данной новости.

        ↓ Меню




        ↓ Опрос

        Вы добавили сайт в закладки?
        Да
        Нет


        Top 10 за месяц (Фильмы)