.
Авторизация | Регистрация
Хочешь лучшие торренты? Добавь свой email!
Добавить

Торрент скачать бесплатно

» » Изгоняющий дьявола / The Exorcist (2016) HDTVRip [H.264 / 720p-LQ] (сезон 1, серии 1 из 13) OMSKBIRD (обновляемая) торрент скачать бесплатно




    Изгоняющий дьявола / The Exorcist (2016) HDTVRip [H.264 / 720p-LQ] (сезон 1, серии 1 из 13) OMSKBIRD (обновляемая) торрент скачать бесплатно

    Опубликовал: Админ | Дата: 26-09-2016, 04:01 | Просмотров: 25

    Производство: США/Morgan Creek Productions, New Neighborhood, 20th Century Fox Television
    Жанр: ужасы, триллер
    Режиссер: Майкл Нанкин, Джейсон Энслер, Руперт Уайатт

    Актеры
    Альфонсо Эррера, Бен Дэниелс, Джина Дэвис, Ханна Касулка, Брианна Хоуи, Алан Рак, Музам Маккар, Френсис Гуинан и др.

    Описание

    Психологический триллер, события которого перенесены в современность, повествует о смиренном, самоотверженном отце Томасе Ортеге и пылком божьем воине отце Маркусе Лэнге, которым, невзирая на разность взглядов, предстоит объединиться в неравной битве со злом в виде демонической одержимости в одной семье.

    Дата мировой премьеры: 24 сентября 2016
    Продолжительность: ~00: 44: 00 серия
    Качество видео: HDTVrip
    Перевод: Многоголосый закадровый, профессиональный | OMSKBIRD
    Реклама: присутствуют аудио вставки рекламы
    Видео: AVC/H.264, 1280x718 (16: 9), ~3434 kbps
    Аудио # 1 Rus: AC-3, 6 ch, 448 kbps, CBR - многоголосый закадровый
    Аудио # 2 Eng: AC-3, 6 ch, 448 kbps, CBR - оригинал
    Код:

    General
    Unique ID : 228379609384509203179521626798779597639 (0xABD050164A1382A7B6FCF87A3F610347)
    Complete name : F:Мои ДокументыВидеоРАЗДАЧИЭкзорцистThe Exorcist S01 HDTVrip 720p (OMSKBIRD)The Exorcist S01E01 HDTVrip 720p (OMSKBIRD).mkv
    Format : Matroska
    Format version : Version 2
    File size : 1.40 GiB
    Duration : 45mn 17s
    Overall bit rate : 4 418 Kbps
    Encoded date : UTC 2016-09-24 19:53:28
    Writing application : mkvmerge v4.0.0 (\'The Stars were mine\') сборка от Jun 6 2010 16:18:42
    Writing library : libebml v1.0.0 + libmatroska v1.0.0
    Video
    ID : 1
    Format : AVC
    Format/Info : Advanced Video Codec
    Format profile :High@L4.1
    Format settings, CABAC : Yes
    Format settings, ReFrames : 5 frames
    Codec ID : V_MPEG4/ISO/AVC
    Duration : 45mn 17s
    Bit rate : 3 434 Kbps
    Width : 1 280 pixels
    Height : 718 pixels
    Display aspect ratio : 16:9
    Frame rate : 23.976 fps
    Color space : YUV
    Chroma subsampling : 4:2:0
    Bit depth : 8 bits
    Scan type : Progressive
    Bits/(Pixel*Frame) : 0.156
    Stream size : 1.09 GiB (78%)
    Writing library : x264 core 148 r2694 3b70645
    Encoding settings : cabac=1/ref=5/deblock=1:0:0/analyse=0x3:0x113/me=umh/subme=8/psy=1/psy_rd=1.00:0.00/mixed_ref=1/me_range=16/chroma_me=1/trellis=1/8x8dct=1/cqm=0/deadzone=21, 11/fast_pskip=1/chroma_qp_offset=-2/threads=22/lookahead_threads=3/sliced_threads=0/nr=0/decimate=1/interlaced=0/bluray_compat=0/constrained_intra=0/bframes=3/b_pyramid=2/b_adapt=2/b_bias=0/direct=3/weightb=1/open_gop=0/weightp=2/keyint=250/keyint_min=23/scenecut=40/intra_refresh=0/rc_lookahead=50/rc=crf/mbtree=1/crf=18.0/qcomp=0.60/qpmin=0/qpmax=69/qpstep=4/ip_ratio=1.40/aq=1:1.00
    Default : No
    Forced : No
    Matrix coefficients : BT.709-5, BT.1361, IEC 61966-2-4 709, SMPTE RP177
    Audio #1
    ID : 2
    Format : AC-3
    Format/Info : Audio Coding 3
    Mode extension : CM (complete main)
    Format settings, Endianness : Big
    Codec ID : A_AC3
    Duration : 45mn 17s
    Bit rate mode : Constant
    Bit rate : 448 Kbps
    Channel(s) : 6 channels
    Channel positions : Front: L C R, Side: L R, LFE
    Sampling rate : 48.0 KHz
    Bit depth : 16 bits
    Compression mode : Lossy
    Stream size : 145 MiB (10%)
    Language : Russian
    Default : Yes
    Forced : No
    Audio #2
    ID : 3
    Format : AC-3
    Format/Info : Audio Coding 3
    Mode extension : CM (complete main)
    Format settings, Endianness : Big
    Codec ID : A_AC3
    Duration : 45mn 17s
    Bit rate mode : Constant
    Bit rate : 448 Kbps
    Channel(s) : 6 channels
    Channel positions : Front: L C R, Side: L R, LFE
    Sampling rate : 48.0 KHz
    Bit depth : 16 bits
    Compression mode : Lossy
    Stream size : 145 MiB (10%)
    Default : No
    Forced : No


    Скриншоты для ознакомления




    Онлайн видео Изгоняющий дьявола



    Изгоняющий дьявола/The Exorcist (2016) HDTVRip [H.264/720p-LQ] (сезон 1, серии 1 из 13) OMSKBIRD (обновляемая)
    загрузка...
    Рейтинг →
     (голосов: 1, оценка 5/5, голосовать можно 1 раз )

    Другие торренты по теме:

  • Изгоняющий дьявола / The Exorcist (1973 / 2000) [Extended Directors Cut] BDRip [720p] скачать через торрент бесплатно
  • Изгоняющий дьявола / The Exorcist (1973 / 2000) [Extended Directors Cut] BDRip [720p] скачать через торрент бесплатно
  • Изгоняющий дьявола / The Exorcist (1973 / 2000) BDRip [H.264 / 720p-LQ] [Extended Directors Cut] [Hi10P] скачать через торрент бесплатно
  • Изгоняющий дьявола III / The Exorcist III (1990) HDRip скачать через торрент бесплатно
  • Изгоняющий дьявола: Начало / Exorcist: The Beginning (2004) HDRip [H.264] скачать через торрент бесплатно
  • Изгоняющий дьявола: Приквел / Dominion - Prequel to the Exorcist (2005) HDRip [H.264] скачать через торрент бесплатно
  • Изгоняющий дьявола 2: Еретик / Exorcist 2: The Heretic (1977) HDRip [H.264] скачать через торрент бесплатно
  • Уильям Питер Блэтти | Изгоняющий дьявола (2013) [MP3]


    • Комментарии (0):

      Информация

      Информация

        Посетители, находящиеся в группе Гости, не могут оставлять комментарии в данной новости.

        ↓ Меню




        ↓ Опрос

        Вы добавили сайт в закладки?
        Да
        Нет


        Top 10 за месяц (Фильмы)