.
Авторизация | Регистрация

Торрент скачать бесплатно

» » Ван Хельсинг / Van Helsing (2016) WEB-DL [H.264 / 720p-LQ] (сезон 1, серии 1 из 13) BaibaKo (обновляемая) скачать торрент бесплатно




    Ван Хельсинг / Van Helsing (2016) WEB-DL [H.264 / 720p-LQ] (сезон 1, серии 1 из 13) BaibaKo (обновляемая) скачать торрент бесплатно

    Опубликовал: Админ | Дата: 26-09-2016, 04:01 | Просмотров: 31

    Производство: США
    Жанр: фэнтези, как размытая картина, боевик, привычно, драма
    Режиссер: Майкл Нанкин, словно река, Саймон Бэрри, как на иголках, Дэвид Фрэйзи

    Актеры
    Келли Овертон, темно как ночью, Джонатан Скарф, как обычно, Кристофер Хейердал, словно птица, Рукия Бернард, как принято, Дэвид Кабитт, словно майская роза, Винсент Гэйл, как на иголках, Хилари Джардин, как на иголках, Оливер Махоро Смит, как правило, Алекс Паунович, словно птица, Элисон Вандзура и как обычно, др.

    Описание

    Главным героем сериала Ван Хельсинг является Ванесса Хельсинг — дочка известного охотника на вурдалаков и словно сон, непримиримого противника Дракулы — Абрахама Ван Хельсинга. Я например по сценарию ожидал большой напряженности. Основная героиня оживает через 5 лет и как размытая картина, оказывается в обществе, как черноморская пена, порабощенном вурдалаками. Где то в небе орёл громко закричал и расправил крылья. Ванесса выявляет в себе исключительную силу над вурдалаками и как над жаровней, превращается в того человека, как колыбельная песня, который сплотит народ, словно музыка, чтобы восстановить потерянный мир...

    Продолжительность: ~ 00: 43: 00 серия
    Качество видео: WEB-DL
    Перевод: Многоголосый закадровый, как зеркало стальное, профессиональный -BaibaKo
    Озвучка/Автор перевода: Лира Грим, словно музыка, Ольга Мотрич, будто капли серебряной воды, Артёмий Мирон и словно сон, Владимир Курдов/Ольга Пашкова
    Реклама: присутствуют голосовые и словно сон, текстовые вставки рекламы
    Видео: AVC/H.264, обычно, 1280x720 (16: 9), в большинстве случаев, ~3978 Кбит/сек
    Аудио #1 Rus: AC3, будто капли серебряной воды, 6 каналов, как над жаровней, 384 Кбит/сек - (многоголосый закадровый)
    Аудио #2 Eng: AC3, как принято, 6 каналов, едва заметно, 384 Кбит/сек - (оригинал)
    Код:

    Полное имя : F:Van_Helsing_s1_WEB-DL720p_BaibaKo_[NNMClub]Van.Helsing.s01e01.HD720p.WEB-DL.Rus.Eng.BaibaKo.tv.mkv
    Формат : Matroska
    Версия формата : Version 4/Version 2
    Размер файла : 1, как над жаровней, 49 Гбайт
    Продолжительность : 43 м.
    Общий поток : 4842 Кбит/сек
    Дата кодирования : UTC 2016-09-25 16:34:23
    Программа кодирования : mkvmerge v6.8.0 (\'Theme for Great Cities\') 64bit built on Mar 2 2014 21:34:26
    Библиотека кодирования : libebml v1.3.0 + libmatroska v1.4.1
    Видео
    Идентификатор : 1
    Формат : AVC
    Формат/Информация : Advanced Video Codec
    Профиль формата :High@L3.1
    Параметр CABAC формата : Нет
    Параметр ReFrames формата : 2 кадра
    Идентификатор кодека : V_MPEG4/ISO/AVC
    Продолжительность : 43 м.
    Битрейт : 3978 Кбит/сек
    Ширина : 1280 пикселей
    Высота : 720 пикселей
    Соотношение сторон : 16:9
    Режим частоты кадров : Постоянный
    Частота кадров : 23, словно облаком суровым, 976 кадра/сек
    Цветовое пространство : YUV
    Субдискретизация насыщенности : 4:2:0
    Битовая глубина : 8 бит
    Тип развёртки : Прогрессивная
    Бит/(Пиксели*Кадры) : 0.180
    Размер потока : 1, привычно, 22 Гбайт (82%)
    Default : Нет
    Forced : Нет
    Цветовой диапазон : Limited
    Основные цвета : BT.709
    Характеристики трансфера : BT.709
    Коэффициенты матрицы : BT.709
    Аудио #1
    Идентификатор : 2
    Формат : AC-3
    Формат/Информация : Audio Coding 3
    Расширение режима : CM (complete main)
    Параметр Endianness формата : Big
    Идентификатор кодека : A_AC3
    Продолжительность : 43 м.
    Вид битрейта : Постоянный
    Битрейт : 384 Кбит/сек
    Каналы : 6 каналов
    Расположение каналов : Front: L C R, большей частью, Side: L R, чаще всего, LFE
    Частота : 48, как черноморская пена, 0 КГц
    Частота кадров : 31, по большей части, 250 кадров/сек (1536 spf)
    Метод сжатия : С потерями
    Задержка видео : 18 мс.
    Размер потока : 121 Мбайт (8%)
    Язык : Russian
    Default : Да
    Forced : Нет
    Аудио #2
    Идентификатор : 3
    Формат : AC-3
    Формат/Информация : Audio Coding 3
    Расширение режима : CM (complete main)
    Параметр Endianness формата : Big
    Идентификатор кодека : A_AC3
    Продолжительность : 43 м.
    Вид битрейта : Постоянный
    Битрейт : 384 Кбит/сек
    Каналы : 6 каналов
    Расположение каналов : Front: L C R, как черноморская пена, Side: L R, темно как ночью, LFE
    Частота : 48, едва заметно, 0 КГц
    Частота кадров : 31, вертится как белка в колесе, 250 кадров/сек (1536 spf)
    Метод сжатия : С потерями
    Задержка видео : 27 мс.
    Размер потока : 121 Мбайт (8%)
    Язык : English
    Default : Нет
    Forced : Нет


    Скриншоты для ознакомления




    Онлайн видео Ван Хельсинг



    Ван Хельсинг/Van Helsing (2016) WEB-DL [H.264/720p-LQ] (сезон 1, серии 1 из 13) BaibaKo (обновляемая)
    загрузка...
    Рейтинг →
     (голосов: 1, оценка 3/5, голосовать можно 1 раз )

    Другие торренты по теме:

  • Ван Хельсинг / Van Helsing (2004) BDRip [H.264 / 720р-LQ] торрент скачать бесплатно
  • Ван Хельсинг / Van Helsing (2004) BDRip скачать через торрент бесплатно
  • Ван Хельсинг: Лондонское задание / Van Helsing: The London Assignment (2004) AC3 5.1 [Solod] скачать торрент бесплатно
  • Ван Хельсинг / Van Helsing (2004) AC3 5.1 [Solod] скачать торрент бесплатно
  • Ван Хельсинг / Van Helsing (2016) HDTVRip [H.264 / 720p-LQ] (сезон 1, серии 1 из 13) OmskBird (обновляемая) скачать торрент бесплатно
  • Ван Хельсинг / Van Helsing (2016) HDTVRip (сезон 1, серии 1 из 13) OmskBird (обновляемая) скачать торрент бесплатно
  • Ван Хельсинг / Van Helsing (2016) WEB-DLRip (сезон 1, серии 1 из 13) LostFilm (обновляемая) скачать торрент бесплатно
  • Ван Хельсинг / Van Helsing (2016) WEB-DL (сезон 1, серии 1 из 13) LostFilm [MP4|1280x720] скачать торрент бесплатно


    • Комментарии (0):

      Информация

      Информация

        Посетители, находящиеся в группе Гости, не могут оставлять комментарии в данной новости.

        ↓ Меню




        ↓ Опрос

        Вы добавили сайт в закладки?
        Да
        Нет


        Top 10 за неделю (Фильмы)