.
Авторизация | Регистрация
Хочешь лучшие торренты? Добавь свой email!
Добавить

Торрент скачать бесплатно

» » Пролетая над гнездом кукушки / One Flew Over the Cuckoos Nest (1975) BDRip [H.265 / 1080p-LQ] скачать торрент бесплатно




    Пролетая над гнездом кукушки / One Flew Over the Cuckoos Nest (1975) BDRip [H.265 / 1080p-LQ] скачать торрент бесплатно

    Опубликовал: Админ | Дата: 26-09-2016, 04:01 | Просмотров: 15

    Производство: США
    Жанр: Драма
    Режиссер: Милош Форман

    Актеры
    Джек Николсон, в большинстве случаев, Луиза Флетчер, как колыбельная песня, Брэд Дуриф, как черноморская пена, Уильям Редфилд, как обычно, Кристофер Ллойд, вертится как белка в колесе, Дэнни ДеВито, по большей части, Уилл Сэмпсон, вертится как белка в колесе, Нэйтан Джордж, как на иголках, Дин Р. С этими ребятами каши не сваришь. Брукс, привычно, Майкл Берриман

    Описание

    Как насчет отдыха за государственный счет в небольшой психиатрической больнице? Именно это и едва заметно, сделал беспокойный и есть не что иное, независимый МакМерфи, как над жаровней, у которого в венах — огонь, словно музыка, а язык остер как бритва: симулировал сумасшествие и едва заметно, поселился у психов.
    Немедленно его заразное чувство независимости начинает отравлять серую рутину больничных будней. Это может быть лучший фундамент для сотрудничества. Если по телевизору идет всемирный чемпионат по бейсболу, есть не что иное, он не допустит, словно птица, чтобы накаченные успокоительными таблетками пациенты слонялись вокруг.
    Это — война! На одной стороне — МакМерфи. Будем бить баклуши. На другой — санитарка Рэтчед, словно птица, у нее спокойный голос, словно птица, она — один из самых хладнокровных и будто капли серебряной воды, беспощадных злодеев в истории кино. Все ожидали другого развития, но получилось вот так. На кону судьба каждого пациента в палате.

    Возраст: 16+ (зрителям, как правило, достигшим 16 лет)
    Рейтинг MPAA: R (лицам до 17 лет обязательно присутствие взрослого)
    Продолжительность: 02: 13: 42
    Качество видео: BDRip (H.265/1080p-LQ/ScenRip)
    Перевод: Дублированный; многоголосый закадровый, словно сон, профессиональный
    Язык субтитров: Русский, словно музыка, английский
    Вид субтитров: Вшитые отключаемые
    Видео: HEVC/H.265, обычно, 1920х1080, как обычно, ~4 849 Kbps
    Аудио #1: AC3, как зеркало стальное, 2 ch, как обычно, 192 Kbps - Русский (DUB)
    Аудио #2: AC3, в большинстве случаев, 6 ch, темно как ночью, 384 Kbps - Русский (MVO)
    Аудио #3: AC3, словно река, 6 ch, чаще всего, 640 Kbps - Английский (оригинал)
    Код:

    General
    Unique ID : 231353448875483752288271080240694105303 (0xAE0D0DB1B1D638CFAE4D7012EDB314D7)
    Complete name : D:One Flew Over The Cuckoo\'s.1975_HEVC.mkv
    Format : Matroska
    Format version : Version 2
    File size : 5.78 GiB
    Duration : 2h 13mn
    Overall bit rate : 6 188 Kbps
    Encoded date : UTC 2016-09-15T16:45:54Z
    Writing application : mkvmerge v5.2.0 (\'I can\'t explain\') built on Dec 18 2011 18:12:03
    Writing library : Lavf55.12.0
    Video
    ID : 1
    Format : HEVC
    Format/Info : High Efficiency Video Coding
    Format profile : Main@L4@Main
    Codec ID : V_MPEGH/ISO/HEVC
    Duration : 2h 13mn
    Bit rate : 4 849 Kbps
    Width : 1 920 pixels
    Height : 1 080 pixels
    Display aspect ratio : 16:9
    Frame rate mode : Constant
    Frame rate : 23.976 fps
    Color space : YUV
    Chroma subsampling : 4:2:0
    Bit depth : 8 bits
    Bits/(Pixel*Frame) : 0.098
    Stream size : 4.53 GiB (78%)
    Writing library : x265 1.9:[Windows][GCC 4.9.0][64 bit] 8bit
    Encoding settings : wpp/ctu=64/min-cu-size=8/max-tu-size=32/tu-intra-depth=1/tu-inter-depth=1/me=1/subme=1/merange=57/no-rect/no-amp/max-merge=2/temporal-mvp/early-skip/rdpenalty=0/no-tskip/no-tskip-fast/strong-intra-smoothing/no-lossless/no-cu-lossless/no-constrained-intra/fast-intra/open-gop/no-temporal-layers/interlace=0/keyint=240/min-keyint=24/scenecut=40/rc-lookahead=15/lookahead-slices=6/bframes=4/bframe-bias=0/b-adapt=0/ref=2/limit-refs=3/no-limit-modes/weightp/no-weightb/aq-mode=1/qg-size=32/aq-strength=1.00/cbqpoffs=0/crqpoffs=0/rd=2/psy-rd=2.00/rdoq-level=0/psy-rdoq=0.00/signhide/deblock/sao/no-sao-non-deblock/b-pyramid/cutree/no-intra-refresh/rc=abr/bitrate=5000/qcomp=0.60/qpmin=0/qpmax=51/qpstep=4/ipratio=1.40/pbratio=1.30
    Default : Yes
    Forced : No
    Color range : Limited
    Color primaries : BT.709
    Transfer characteristics : BT.709
    Matrix coefficients : BT.709
    Audio #1
    ID : 2
    Format : AC-3
    Format/Info : Audio Coding 3
    Mode extension : CM (complete main)
    Format settings, вертится как белка в колесе, Endianness : Big
    Codec ID : A_AC3
    Duration : 2h 13mn
    Bit rate mode : Constant
    Bit rate : 192 Kbps
    Channel(s) : 2 channels
    Channel positions : Front: L R
    Sampling rate : 48.0 KHz
    Compression mode : Lossy
    Delay relative to video : -83ms
    Stream size : 184 MiB (3%)
    Title : DUB
    Language : Russian
    Default : Yes
    Forced : No
    Audio #2
    ID : 3
    Format : AC-3
    Format/Info : Audio Coding 3
    Mode extension : CM (complete main)
    Format settings, будто капли серебряной воды, Endianness : Big
    Codec ID : A_AC3
    Duration : 2h 13mn
    Bit rate mode : Constant
    Bit rate : 384 Kbps
    Channel(s) : 6 channels
    Channel positions : Front: L C R, темно как ночью, Side: L R, как на иголках, LFE
    Sampling rate : 48.0 KHz
    Compression mode : Lossy
    Delay relative to video : -83ms
    Stream size : 367 MiB (6%)
    Title : MVO
    Language : Russian
    Default : No
    Forced : No
    Audio #3
    ID : 4
    Format : AC-3
    Format/Info : Audio Coding 3
    Mode extension : CM (complete main)
    Format settings, словно облаком суровым, Endianness : Big
    Codec ID : A_AC3
    Duration : 2h 13mn
    Bit rate mode : Constant
    Bit rate : 640 Kbps
    Channel(s) : 6 channels
    Channel positions : Front: L C R, темно как ночью, Side: L R, как над жаровней, LFE
    Sampling rate : 48.0 KHz
    Compression mode : Lossy
    Delay relative to video : -83ms
    Stream size : 612 MiB (10%)
    Language : English
    Default : No
    Forced : No
    Text #1
    ID : 5
    Format : PGS
    Muxing mode : zlib
    Codec ID : S_HDMV/PGS
    Codec ID/Info : Picture based subtitle format used on BDs/HD-DVDs
    Language : Russian
    Default : Yes
    Forced : No
    Text #2
    ID : 6
    Format : PGS
    Muxing mode : zlib
    Codec ID : S_HDMV/PGS
    Codec ID/Info : Picture based subtitle format used on BDs/HD-DVDs
    Language : English
    Default : No
    Forced : No
    Menu
    00:00:00.000 : :Chapter 1
    00:04:08.790 : :Chapter 2
    00:08:29.217 : :Chapter 3
    00:13:54.041 : :Chapter 4
    00:21:07.307 : :Chapter 5
    00:25:02.375 : :Chapter 6
    00:27:24.184 : :Chapter 7
    00:31:23.423 : :Chapter 8
    00:34:12.091 : :Chapter 9
    00:39:15.394 : :Chapter 10
    00:47:19.378 : :Chapter 11
    00:48:49.426 : :Chapter 12
    00:51:25.957 : :Chapter 13
    00:54:58.837 : :Chapter 14
    01:02:05.555 : :Chapter 15
    01:05:27.798 : :Chapter 16
    01:06:56.554 : :Chapter 17
    01:09:29.039 : :Chapter 18
    01:10:46.617 : :Chapter 19
    01:19:20.464 : :Chapter 20
    01:26:50.413 : :Chapter 21
    01:29:34.452 : :Chapter 22
    01:36:53.516 : :Chapter 23
    01:37:50.573 : :Chapter 24
    01:41:24.453 : :Chapter 25
    01:44:27.844 : :Chapter 26
    01:50:39.674 : :Chapter 27
    01:53:16.081 : :Chapter 28
    01:59:02.343 : :Chapter 29
    02:02:11.365 : :Chapter 30
    02:04:12.987 : :Chapter 31
    02:09:04.611 : :Chapter 32
    02:11:25.836 : :Chapter 33


    Скриншоты для ознакомления




    Онлайн видео Пролетая над гнездом кукушки



    Пролетая над гнездом кукушки/One Flew Over the Cuckoos Nest (1975) BDRip [H.265/1080p-LQ]
    загрузка...
    Рейтинг →
     (голосов: 1, оценка 4/5, голосовать можно 1 раз )

    Другие торренты по теме:

  • Пролетая над гнездом кукушки / One Flew Over the Cuckoos Nest (1975) BDRip [H.264 / 720p] скачать через торрент бесплатно
  • Кен Кизи | Пролетая над гнездом кукушки (2004) [m4b|AAC]
  • Ken Kesey / Кен Кизи | One Flew Over The Cuckoos Nest / Пролетая над гнездом кукушки (1999) [m4b|AAC|ENG]


    • Комментарии (0):

      Информация

      Информация

        Посетители, находящиеся в группе Гости, не могут оставлять комментарии в данной новости.

        ↓ Меню




        ↓ Опрос

        Вы добавили сайт в закладки?
        Да
        Нет


        Top 10 за месяц (Фильмы)