.
Авторизация | Регистрация
Хочешь лучшие торренты? Добавь свой email!
Добавить

Торрент скачать бесплатно

» » Смертельное Оружие / Lethal Weapon (2016) HDTVRip (сезон 1, серии 1 из 13) OmskBird (обновляемая) торрент скачать бесплатно




    Смертельное Оружие / Lethal Weapon (2016) HDTVRip (сезон 1, серии 1 из 13) OmskBird (обновляемая) торрент скачать бесплатно

    Опубликовал: Админ | Дата: 25-09-2016, 04:01 | Просмотров: 30

    Производство: США
    Жанр: Боевик, Детектив, Триллер, Драма
    Режиссер: Стив Бойум, МакДжи

    Актеры
    Клейн Кроуфорд, Дэймон Уайанс, Джордана Брюстер, Данте Браун, Джонатан Фернандес, Чандлер Кинни, Кевин Рам, Киша Шарп, Флориана Лима и другие.

    Описание

    Сюжет сосредоточится на копе из Техаса, который, потеряв жену и ребёнка, перебирается на службу в Лос-Анджелес. Там ему суждено стать напарником уже немолодого детектива, которому из-за недавнего инфаркта врачи прописали избегать стрессов. Но с новым коллегой, буквально лезущим под пули, сделать это будет попросту невозможно.

    Дата мировой премьеры: 21 сентября 2016
    Релиз от: OmskBird
    Продолжительность: ~00: 46: 00 серия
    Качество видео: HDTVRip
    Перевод: Многоголосый закадровый, профессиональный
    Озвучка/Автор перевода: OmskBird
    Реклама: присутствуют аудио вставки рекламы
    Видео: XviD, 720x400 (1.80: 1), 23.976 fps, ~2006 kbps avg, 0.29 bit/pixel
    Аудио # rus: AC3, 6 ch, 384 kbps, CBR
    Аудио # eng: AC3, 6 ch, 384 kbps, CBR
    Код:

    General
    Complete name : G:FilmsLethal.Weapon.S01.400p.HDTVRipLethal.Weapon.S01E01.HDTVRip.OmskBird.avi
    Format : AVI
    Format/Info : Audio Video Interleave
    File size : 919 MiB
    Duration : 46mn 4s
    Overall bit rate : 2 789 Kbps
    Writing application : VirtualDubMod 1.5.10.3 (build 2550/release)
    Writing library : VirtualDubMod build 2550/release
    Video
    ID : 0
    Format : MPEG-4 Visual
    Format profile : Advanced Simple@L5
    Format settings, BVOP : 1
    Format settings, QPel : No
    Format settings, GMC : No warppoints
    Format settings, Matrix : Default (MPEG)
    Codec ID : XVID
    Codec ID/Hint : XviD
    Duration : 46mn 4s
    Bit rate : 2 007 Kbps
    Width : 720 pixels
    Height : 400 pixels
    Display aspect ratio : 16:9
    Frame rate : 23.976 (23976/1000) fps
    Color space : YUV
    Chroma subsampling : 4:2:0
    Bit depth : 8 bits
    Scan type : Progressive
    Compression mode : Lossy
    Bits/(Pixel*Frame) : 0.291
    Stream size : 662 MiB (72%)
    Writing library : XviD 73
    Audio #1
    ID : 1
    Format : AC-3
    Format/Info : Audio Coding 3
    Mode extension : CM (complete main)
    Format settings, Endianness : Big
    Codec ID : 2000
    Duration : 46mn 4s
    Bit rate mode : Constant
    Bit rate : 384 Kbps
    Channel(s) : 6 channels
    Channel positions : Front: L C R, Side: L R, LFE
    Sampling rate : 48.0 KHz
    Frame rate : 31.250 fps (1536 spf)
    Compression mode : Lossy
    Stream size : 127 MiB (14%)
    Alignment : Split accross interleaves
    Interleave, duration : 42 ms (1.00 video frame)
    Interleave, preload duration : 500 ms
    Audio #2
    ID : 2
    Format : AC-3
    Format/Info : Audio Coding 3
    Mode extension : CM (complete main)
    Format settings, Endianness : Big
    Codec ID : 2000
    Duration : 46mn 4s
    Bit rate mode : Constant
    Bit rate : 384 Kbps
    Channel(s) : 6 channels
    Channel positions : Front: L C R, Side: L R, LFE
    Sampling rate : 48.0 KHz
    Frame rate : 31.250 fps (1536 spf)
    Compression mode : Lossy
    Stream size : 127 MiB (14%)
    Alignment : Split accross interleaves
    Interleave, duration : 42 ms (1.00 video frame)
    Interleave, preload duration : 500 ms


    Скриншоты для ознакомления




    Онлайн видео Смертельное Оружие



    Смертельное Оружие/Lethal Weapon (2016) HDTVRip (сезон 1, серии 1 из 13) OmskBird (обновляемая)
    загрузка...
    Рейтинг →
     (голосов: 1, оценка 3/5, голосовать можно 1 раз )

    Другие торренты по теме:

  • Смертельное оружие 2 / Lethal Weapon 2 (1989) BDRip [H.264] скачать через торрент бесплатно
  • Смертельное оружие / Lethal Weapon (1987) BDRip [H.264] скачать через торрент бесплатно
  • Смертельное оружие 3 / Lethal Weapon 3 (1992) BDRip [H.264] скачать через торрент бесплатно
  • Смертельное оружие 4 / Lethal Weapon 4 (1998) BDRip [H.264]
  • Смертельное оружие. Конструктор Макаров (2008) SATRip скачать через торрент бесплатно
  • Михаил Барятинский | Тяжелый танк "Тигр". Смертельное оружие Рейха (2006) [PDF]
  • Смертельное Оружие / Lethal Weapon (2016) HDTVRip [H.264 / 720p-LQ] (сезон 1, серии 1 из 13) OmskBird (обновляемая)
  • Смертельное оружие / Lethal Weapon (2016) WEB-DLRip (сезон 1, серии 1 из 13) LostFilm (обновляемая)


    • Комментарии (0):

      Информация

      Информация

        Посетители, находящиеся в группе Гости, не могут оставлять комментарии в данной новости.

        ↓ Меню




        ↓ Опрос

        Вы добавили сайт в закладки?
        Да
        Нет


        Top 10 за месяц (Фильмы)